<?xml version="1.0" standalone="no"?>
<!DOCTYPE svg PUBLIC "-//W3C//DTD SVG 1.1//EN" "http://www.w3.org/Graphics/SVG/1.1/DTD/svg11.dtd" >
<svg xmlns="http://www.w3.org/2000/svg">
<metadata>
<json>
<![CDATA[
{
	"fontFamily": "icomoon",
	"description": "Font generated by IcoMoon.",
	"majorVersion": 1,
	"minorVersion": 0,
	"version": "Version 1.0",
	"fontId": "icomoon",
	"psName": "icomoon",
	"subFamily": "Regular",
	"fullName": "icomoon"
}
]]>
</json>
</metadata>
<defs>
<font id="icomoon" horiz-adv-x="1024">
<font-face units-per-em="1024" ascent="960" descent="-64" />
<missing-glyph horiz-adv-x="1024" />
<glyph unicode="&#x20;" horiz-adv-x="512" d="" />
<glyph unicode="&#xe900;" glyph-name="email-fill" data-tags="email-fill" d="M165.333 789.333c-44.167 0-80-38.222-80-85.333 0-26.845 11.833-52.089 32-68.267l362.667-290.133c18.999-15.113 45.001-15.113 64 0l362.667 290.133c20.169 16.178 32 41.422 32 68.267 0 47.111-35.831 85.333-80 85.333h-693.333zM85.333 590.222v-369.776c0-62.758 47.833-113.779 106.667-113.779h640c58.833 0 106.667 51.021 106.667 113.779v369.776l-362.667-290.135c-18.453-14.797-40.913-22.797-64-22.797s-45.547 8-64 22.797l-362.667 290.135z" />
<glyph unicode="&#xe901;" glyph-name="adduser" data-tags="add user" d="M1024 416c0-12.732-5.060-24.939-14.059-33.941-9.003-9.003-21.214-14.059-33.941-14.059h-32v-32c0-12.732-5.060-24.939-14.059-33.941-9.003-9.003-21.214-14.059-33.941-14.059-12.732 0-24.939 5.056-33.941 14.059s-14.059 21.21-14.059 33.941v32h-32c-12.732 0-24.939 5.056-33.941 14.059s-14.059 21.21-14.059 33.941c0 12.732 5.056 24.939 14.059 33.941s21.21 14.059 33.941 14.059h32v32c0 12.732 5.056 24.939 14.059 33.941s21.21 14.059 33.941 14.059c12.727 0 24.939-5.057 33.941-14.059 8.998-9.003 14.059-21.21 14.059-33.941v-32h32c12.727 0 24.939-5.056 33.941-14.059 8.998-9.003 14.059-21.21 14.059-33.941zM811.998 190.801c8.166-9.762 12.122-22.366 10.995-35.042-1.122-12.676-7.236-24.388-16.994-32.559-8.597-7.292-19.524-11.264-30.801-11.2-7.010 0.055-13.922 1.621-20.275 4.591-6.349 2.965-11.985 7.266-16.525 12.608-37.542 44.74-84.429 80.713-137.365 105.395-52.932 24.678-110.63 37.47-169.033 37.47-58.406 0-116.102-12.791-169.036-37.47-52.934-24.683-99.82-60.655-137.365-105.395-3.994-4.992-8.945-9.135-14.561-12.186s-11.787-4.954-18.147-5.585c-6.361-0.636-12.785 0.004-18.894 1.886s-11.782 4.962-16.684 9.067c-4.902 4.1-8.935 9.143-11.863 14.827s-4.691 11.891-5.185 18.266c-0.495 6.374 0.288 12.779 2.303 18.846s5.222 11.669 9.432 16.482c53.873 64.175 123.079 113.702 201.2 144-46.879 37.124-81.039 87.923-97.74 145.34-16.701 57.422-15.114 118.617 4.541 175.094s56.402 105.435 105.143 140.081c48.741 34.645 107.057 53.26 166.857 53.26 59.797 0 118.114-18.615 166.857-53.26 48.738-34.646 85.487-83.604 105.143-140.081 19.652-56.477 21.239-117.672 4.54-175.094-16.7-57.417-50.863-108.215-97.741-145.34 78.123-30.298 147.328-79.825 201.199-144zM432 368c37.973 0 75.093 11.26 106.667 32.358 31.578 21.099 56.183 51.085 70.716 86.165 14.532 35.085 18.334 73.689 10.927 110.934s-25.694 71.456-52.544 98.307c-26.854 26.852-61.065 45.138-98.308 52.547s-75.85 3.606-110.933-10.926c-35.084-14.532-65.070-39.141-86.167-70.715s-32.358-68.695-32.358-106.67c0-50.923 20.228-99.759 56.236-135.765s84.843-56.235 135.765-56.235z" />
<glyph unicode="&#xe902;" glyph-name="add" data-tags="add" d="M912 448c0-12.732-5.056-24.939-14.059-33.941s-21.21-14.059-33.941-14.059h-304v-304c0-12.732-5.056-24.939-14.059-33.941s-21.21-14.059-33.941-14.059c-12.732 0-24.939 5.056-33.941 14.059s-14.059 21.21-14.059 33.941v304h-304c-12.73 0-24.94 5.056-33.941 14.059s-14.059 21.21-14.059 33.941c0 12.732 5.057 24.939 14.059 33.941s21.211 14.059 33.941 14.059h304v304c0 12.73 5.056 24.94 14.059 33.941s21.21 14.059 33.941 14.059c12.732 0 24.939-5.057 33.941-14.059s14.059-21.211 14.059-33.941v-304h304c12.732 0 24.939-5.056 33.941-14.059s14.059-21.21 14.059-33.941z" />
<glyph unicode="&#xe903;" glyph-name="ArrowUp-Down" data-tags="Arrow Up-Down" d="M326.849 337.903l185.189-212.966 185.195 212.966c7.168 8.166 17.207 13.107 27.925 13.751s21.252-3.059 29.312-10.313c7.991-7.326 12.83-17.583 13.461-28.535 0.627-10.953-2.999-21.717-10.095-29.952l-215.492-247.718c-3.823-4.343-8.495-7.817-13.713-10.197-5.222-2.377-10.876-3.605-16.593-3.605-5.713 0-11.366 1.229-16.589 3.605-5.218 2.381-9.894 5.854-13.713 10.197l-215.495 247.718c-7.144 8.213-10.803 18.991-10.171 29.956 0.631 10.97 5.501 21.235 13.539 28.531 8.037 7.3 18.583 11.042 29.318 10.394 10.735-0.644 20.779-5.619 27.923-13.833v0zM481.737 860.862l-215.495-247.718c-3.537-4.066-6.256-8.805-8.001-13.945s-2.483-10.581-2.17-16.012c0.313-5.431 1.669-10.746 3.992-15.642s5.567-9.275 9.546-12.89c3.98-3.614 8.617-6.393 13.647-8.176s10.355-2.537 15.671-2.217c5.315 0.32 10.517 1.706 15.308 4.079s9.077 5.688 12.615 9.754l185.189 212.968 185.195-212.968c7.168-8.165 17.207-13.107 27.925-13.751s21.252 3.061 29.312 10.311c7.991 7.328 12.83 17.584 13.461 28.537 0.627 10.953-2.999 21.717-10.095 29.952l-215.492 247.718c-3.823 4.344-8.495 7.819-13.713 10.197-5.222 2.378-10.876 3.607-16.593 3.607-5.713 0-11.366-1.229-16.589-3.607-5.218-2.378-9.894-5.853-13.713-10.197v0z" />
<glyph unicode="&#xe904;" glyph-name="arrow-down" data-tags="arrow-down" d="M833.933 350.059l-288-288c-8.998-8.998-21.21-14.054-33.937-14.054-12.732 0-24.939 5.056-33.941 14.054l-288 288c-8.881 9.028-13.835 21.197-13.783 33.86s5.105 24.794 14.058 33.745c8.954 8.956 21.083 14.007 33.746 14.059s24.832-4.902 33.859-13.781l206.061-206.059v588.117c0 12.73 5.056 24.94 14.059 33.941s21.21 14.059 33.941 14.059c12.727 0 24.939-5.057 33.941-14.059 8.998-9.002 14.059-21.211 14.059-33.941v-588.122l206.059 206.063c9.028 8.879 21.197 13.833 33.86 13.781s24.789-5.103 33.745-14.059c8.951-8.951 14.007-21.082 14.059-33.745s-4.902-24.832-13.786-33.86v0z" />
<glyph unicode="&#xe905;" glyph-name="arrow-left" data-tags="arrow-left" d="M911.996 447.983c0-12.727-5.056-24.939-14.059-33.941-8.998-8.998-21.21-14.059-33.941-14.059h-588.118l206.060-206.059c8.883-9.024 13.837-21.197 13.786-33.86-0.051-12.659-5.107-24.789-14.059-33.745-8.956-8.951-21.086-14.007-33.749-14.059-12.659-0.051-24.83 4.902-33.857 13.786l-288 288c-9.001 8.998-14.058 21.21-14.058 33.937 0 12.732 5.057 24.939 14.058 33.941l288 288c9.027 8.881 21.198 13.835 33.857 13.783 12.663-0.051 24.794-5.104 33.749-14.058 8.951-8.954 14.007-21.083 14.059-33.746s-4.902-24.832-13.786-33.859l-206.055-206.062h588.114c12.732 0 24.943-5.056 33.941-14.059 9.003-8.998 14.059-21.21 14.059-33.941z" />
<glyph unicode="&#xe906;" glyph-name="arrow-right" data-tags="arrow-right" d="M897.941 414.046l-288-288c-9.028-8.883-21.197-13.837-33.86-13.786s-24.794 5.107-33.745 14.059c-8.956 8.956-14.007 21.086-14.059 33.745-0.051 12.663 4.902 24.836 13.781 33.86l206.059 206.059h-588.117c-12.73 0-24.94 5.060-33.941 14.059-9.001 9.003-14.059 21.214-14.059 33.941 0 12.732 5.057 24.943 14.059 33.941 9.002 9.003 21.211 14.059 33.941 14.059h588.122l-206.063 206.062c-8.879 9.027-13.833 21.197-13.781 33.859s5.103 24.792 14.059 33.746c8.951 8.954 21.082 14.007 33.745 14.058s24.832-4.902 33.86-13.783l288-288c8.998-9.003 14.054-21.21 14.054-33.941 0-12.727-5.056-24.939-14.054-33.937v0z" />
<glyph unicode="&#xe907;" glyph-name="arrow-up" data-tags="arrow-up" d="M833.933 478.067c-8.998-9.003-21.21-14.059-33.937-14.059-12.732 0-24.939 5.056-33.941 14.059l-206.059 206.054v-588.117c0-12.727-5.060-24.939-14.059-33.941-9.003-8.998-21.214-14.059-33.941-14.059-12.732 0-24.939 5.060-33.941 14.059-9.003 9.003-14.059 21.214-14.059 33.941v588.121l-206.061-206.058c-9.027-8.883-21.196-13.837-33.859-13.786s-24.792 5.107-33.746 14.059c-8.954 8.956-14.007 21.082-14.058 33.745s4.902 24.834 13.783 33.86l288 288c9.003 8.999 21.21 14.054 33.941 14.054 12.727 0 24.934-5.055 33.937-14.054l288-288c9.003-9.002 14.059-21.21 14.059-33.941 0-12.727-5.056-24.939-14.059-33.937v0z" />
<glyph unicode="&#xe908;" glyph-name="award" data-tags="award" d="M472.593 859.446c18.334 12.166 42.33 12.166 60.663 0l29.662-19.499c10.001-6.499 21.666-9.666 33.498-8.999l35.499 2.167c21.999 1.333 42.667-10.666 52.497-30.331l16-31.831c5.333-10.666 13.999-19.165 24.499-24.498l32.162-16.166c19.665-9.833 31.667-30.498 30.332-52.497l-2.167-35.497c-0.666-11.833 2.5-23.665 9.003-33.498l19.665-29.664c12.164-18.332 12.164-42.33 0-60.663l-19.665-29.833c-6.502-9.997-9.668-21.662-9.003-33.498l2.167-35.494c1.335-21.999-10.667-42.667-30.332-52.497l-31.829-16c-10.667-5.333-19.166-13.999-24.499-24.499l-16.166-32.162c-9.83-19.669-30.498-31.667-52.497-30.332l-35.494 2.163c-11.836 0.67-23.667-2.496-33.498-8.998l-29.666-19.665c-18.334-12.164-42.33-12.164-60.663 0l-29.833 19.665c-9.997 6.502-21.664 9.668-33.496 8.998l-35.498-2.163c-21.999-1.335-42.664 10.662-52.497 30.332l-15.999 31.829c-5.333 10.667-13.999 19.166-24.498 24.499l-32.165 16.166c-19.665 9.83-31.665 30.498-30.331 52.493l2.167 35.499c0.666 11.836-2.5 23.667-8.999 33.498l-19.499 29.833c-12.166 18.332-12.166 42.33 0 60.663l19.499 29.665c6.499 9.999 9.666 21.665 8.999 33.498l-2.167 35.498c-1.333 21.999 10.666 42.664 30.331 52.497l31.831 15.999c10.666 5.5 19.332 14.166 24.665 24.832l15.999 31.831c9.833 19.665 30.498 31.665 52.497 30.331l35.497-2.167c11.833-0.666 23.666 2.5 33.497 8.999l29.833 19.499zM636.25 548.633c0 73.662-59.665 133.324-133.325 133.324-73.664 0-133.325-59.663-133.325-133.324 0-73.664 59.661-133.324 133.325-133.324 73.66 0 133.325 59.661 133.325 133.324zM185.112 132.326l71.829 170.825c0.333-0.166 0.5-0.333 0.666-0.67l15.999-31.829c19.499-38.665 59.996-62.161 103.326-59.661l35.498 2.163c0.333 0 0.833 0 1.167-0.333l29.663-19.665c8.499-5.5 17.502-9.83 26.833-12.83l-62.662-148.826c-3.833-9.165-12.333-15.33-22.165-16.166-9.833-0.832-19.332 3.669-24.665 12.002l-53.663 82.159-93.494-13.833c-9.499-1.331-18.999 2.5-24.998 10.001-5.999 7.497-7.166 17.83-3.5 26.662h0.166zM598.417 31.667l-62.66 148.659c9.331 2.999 18.33 7.164 26.829 12.83l29.666 19.665c0.333 0.166 0.666 0.333 1.165 0.333l35.499-2.163c43.332-2.5 83.827 20.996 103.326 59.661l16 31.829c0.166 0.337 0.333 0.503 0.666 0.67l71.996-170.825c3.665-8.832 2.334-18.999-3.499-26.662-5.833-7.667-15.501-11.499-24.998-10.001l-93.495 13.833-53.662-81.993c-5.333-8.333-14.831-12.834-24.666-12.002-9.83 0.836-18.33 7.168-22.165 16.166z" />
<glyph unicode="&#xe909;" glyph-name="branchoffice" data-tags="branch office" d="M897.378 147.691h-13.764v348.719c-0.090 18.47-7.373 36.156-20.258 49.216s-30.336 20.437-48.559 20.529h-206.451v153.436c-0.094 18.469-7.373 36.155-20.258 49.215s-30.336 20.437-48.559 20.529h-330.324c-18.224-0.092-35.675-7.469-48.561-20.529s-20.166-30.746-20.256-49.215v-571.899h-13.763c-10.951 0-21.453-4.407-29.196-12.254-7.744-7.851-12.094-18.492-12.094-29.589s4.35-21.743 12.094-29.589c7.743-7.851 18.246-12.258 29.196-12.258h770.755c10.948 0 21.453 4.407 29.197 12.258 7.74 7.846 12.092 18.492 12.092 29.589s-4.352 21.739-12.092 29.589c-7.744 7.846-18.249 12.254-29.197 12.254zM801.033 482.462v-334.771h-192.687v334.771h192.687zM222.968 705.641h302.796v-557.95h-302.796v557.95zM264.258 608c0 11.098 4.35 21.742 12.093 29.59s18.246 12.256 29.197 12.256h96.344c10.951 0 21.453-4.409 29.199-12.256 7.74-7.848 12.092-18.491 12.092-29.59s-4.352-21.742-12.092-29.59c-7.746-7.848-18.248-12.256-29.199-12.256h-96.344c-10.951 0-21.453 4.409-29.197 12.256s-12.093 18.491-12.093 29.59zM484.471 384.819c0-11.098-4.348-21.739-12.092-29.589-7.744-7.846-18.244-12.254-29.197-12.254h-96.344c-10.951 0-21.453 4.407-29.196 12.254-7.744 7.851-12.094 18.492-12.094 29.589s4.35 21.743 12.094 29.589c7.743 7.851 18.246 12.258 29.196 12.258h96.344c10.953 0 21.453-4.407 29.197-12.258 7.744-7.846 12.092-18.492 12.092-29.589zM443.183 245.333c0-11.098-4.352-21.743-12.092-29.589-7.746-7.846-18.248-12.258-29.199-12.258h-96.344c-10.951 0-21.453 4.412-29.197 12.258s-12.093 18.492-12.093 29.589c0 11.098 4.35 21.743 12.093 29.589s18.246 12.258 29.197 12.258h96.344c10.951 0 21.453-4.412 29.199-12.258 7.74-7.846 12.092-18.492 12.092-29.589zM759.744 245.333c0-11.098-4.352-21.743-12.096-29.589s-18.244-12.258-29.197-12.258h-27.529c-10.948 0-21.453 4.412-29.193 12.258-7.744 7.846-12.096 18.492-12.096 29.589s4.352 21.743 12.096 29.589c7.74 7.846 18.244 12.258 29.193 12.258h27.529c10.953 0 21.453-4.412 29.197-12.258s12.096-18.492 12.096-29.589v0zM649.634 384.819c0 11.098 4.352 21.743 12.096 29.589 7.74 7.851 18.244 12.258 29.193 12.258h27.529c10.953 0 21.453-4.407 29.197-12.258 7.744-7.846 12.096-18.492 12.096-29.589s-4.352-21.739-12.096-29.589c-7.744-7.846-18.244-12.254-29.197-12.254h-27.529c-10.948 0-21.453 4.407-29.193 12.254-7.744 7.851-12.096 18.492-12.096 29.589z" />
<glyph unicode="&#xe90a;" glyph-name="briefcase" data-tags="briefcase" d="M864 736h-144v32c-0.107 29.672-11.938 58.098-32.922 79.080-20.979 20.981-49.408 32.815-79.078 32.92h-192c-29.672-0.105-58.098-11.939-79.080-32.92s-32.815-49.408-32.92-79.080v-32h-144c-21.185-0.105-41.472-8.567-56.452-23.548s-23.443-35.267-23.548-56.452v-512c0.105-21.184 8.567-41.472 23.548-56.452s35.267-23.441 56.452-23.548h704c21.184 0.107 41.472 8.567 56.452 23.548s23.441 35.268 23.548 56.452v512c-0.107 21.185-8.567 41.472-23.548 56.452s-35.268 23.443-56.452 23.548v0zM400 768c0 4.244 1.686 8.313 4.686 11.313s7.070 4.687 11.314 4.687h192c4.245 0 8.311-1.686 11.315-4.687 2.999-3 4.685-7.070 4.685-11.313v-32h-224v32zM848 640v-140.8c-103.573-54.63-218.901-83.187-336-83.2-117.091 0.060-232.409 28.617-336 83.2v140.8h672zM176 160v232.401c105.578-47.753 220.126-72.435 336-72.401 115.874-0.034 230.421 24.649 336 72.401v-232.401h-672zM416 512c0 12.732 5.057 24.94 14.059 33.941s21.21 14.059 33.941 14.059h96c12.732 0 24.939-5.057 33.941-14.059s14.059-21.21 14.059-33.941c0-12.732-5.056-24.939-14.059-33.941s-21.21-14.059-33.941-14.059h-96c-12.732 0-24.939 5.056-33.941 14.059-9.001 9.003-14.059 21.21-14.059 33.941v0z" />
<glyph unicode="&#xe90b;" glyph-name="calendar" data-tags="calendar" d="M832 848h-80v32c0 12.73-5.056 24.94-14.059 33.941s-21.21 14.059-33.941 14.059c-12.732 0-24.939-5.057-33.941-14.059s-14.059-21.211-14.059-33.941v-32h-288v32c0 12.73-5.057 24.94-14.059 33.941s-21.211 14.059-33.941 14.059c-12.73 0-24.94-5.057-33.941-14.059s-14.059-21.211-14.059-33.941v-32h-80c-21.21-0.023-41.545-8.46-56.543-23.457s-23.434-35.333-23.457-56.543v-640c0.023-21.21 8.46-41.545 23.457-56.542s35.333-23.437 56.543-23.458h640c21.21 0.021 41.545 8.461 56.542 23.458s23.437 35.332 23.458 56.542v640c-0.021 21.21-8.461 41.545-23.458 56.543s-35.332 23.434-56.542 23.457v0zM816 752v-96h-608v96h608zM208 144v416h608v-416h-608z" />
<glyph unicode="&#xe90c;" glyph-name="camera" data-tags="camera" d="M832 752h-102.336l-49.754 74.624c-4.382 6.575-10.321 11.967-17.284 15.696-6.967 3.729-14.75 5.68-22.652 5.68h-255.998c-7.902 0-15.682-1.951-22.649-5.68s-12.905-9.121-17.287-15.696l-49.752-74.624h-102.288c-29.694-0.033-58.163-11.843-79.16-32.84s-32.807-49.466-32.84-79.16v-448c0.033-29.696 11.843-58.163 32.84-79.159s49.466-32.806 79.16-32.841h640c29.696 0.034 58.163 11.844 79.159 32.841s32.806 49.463 32.841 79.159v448c-0.034 29.694-11.844 58.163-32.841 79.16s-49.463 32.807-79.159 32.84v0zM848 192c-0.004-4.241-1.69-8.311-4.689-11.311s-7.070-4.685-11.311-4.689h-640c-4.242 0.004-8.309 1.69-11.309 4.689s-4.687 7.070-4.691 11.311v448c0.004 4.242 1.691 8.309 4.691 11.309s7.067 4.687 11.309 4.691h127.976c7.903-0.001 15.683 1.95 22.651 5.679s12.906 9.121 17.289 15.697l49.748 74.624h204.625l49.749-74.624c4.382-6.575 10.321-11.967 17.289-15.696s14.746-5.68 22.647-5.68h128.026c4.241-0.004 8.311-1.691 11.311-4.691s4.685-7.067 4.689-11.309v-448zM512 624c-37.973 0-75.093-11.261-106.67-32.358-31.574-21.097-56.183-51.084-70.715-86.166-14.532-35.085-18.334-73.69-10.926-110.933s25.694-71.454 52.546-98.308c26.852-26.85 61.064-45.137 98.307-52.544 37.244-7.411 75.849-3.61 110.933 10.923 35.081 14.532 65.067 39.142 86.165 70.716 21.099 31.578 32.358 68.698 32.358 106.671-0.055 50.906-20.305 99.708-56.299 135.701s-84.796 56.241-135.701 56.299v0zM512 336c-18.987 0-37.547 5.632-53.333 16.179s-28.092 25.54-35.359 43.085c-7.266 17.54-9.167 36.843-5.463 55.467 3.704 18.62 12.846 35.725 26.273 49.152s30.532 22.571 49.152 26.274c18.624 3.703 37.926 1.801 55.467-5.466 17.545-7.266 32.538-19.571 43.085-35.358s16.179-34.347 16.179-53.333c-0.030-25.451-10.15-49.852-28.147-67.853-18.001-17.997-42.402-28.117-67.853-28.147v0z" />
<glyph unicode="&#xe90d;" glyph-name="carret-down" data-tags="carret-down" d="M927.637 594.359l-387.994-391.091c-7.415-7.228-17.327-11.268-27.644-11.268s-20.228 4.041-27.644 11.268l-387.993 391.091c-5.263 5.655-8.831 12.696-10.29 20.309s-0.75 15.487 2.045 22.711c2.968 7.118 7.96 13.191 14.347 17.454s13.882 6.525 21.542 6.501h775.986c7.659 0.024 15.155-2.238 21.542-6.501s11.379-10.336 14.345-17.454c2.795-7.224 3.507-15.098 2.048-22.711s-5.026-14.654-10.291-20.309z" />
<glyph unicode="&#xe90e;" glyph-name="carret-left" data-tags="carret-left" d="M725.333 835.998v-775.872c0.026-7.659-2.236-15.151-6.498-21.538s-10.33-11.379-17.446-14.345c-4.821-1.899-9.958-2.889-15.147-2.91-10.381 0.043-20.352 4.036-27.857 11.153l-390.926 387.934c-7.341 7.356-11.459 17.289-11.459 27.644 0 10.351 4.118 20.284 11.459 27.639l390.926 387.935c5.653 5.263 12.693 8.83 20.301 10.289 7.612 1.459 15.484 0.75 22.703-2.045 7.117-2.968 13.184-7.959 17.446-14.345s6.524-13.88 6.498-21.539v0z" />
<glyph unicode="&#xe90f;" glyph-name="carret-right" data-tags="carret-right" d="M713.873 420.42l-390.927-387.934c-7.504-7.117-17.473-11.11-27.854-11.153-5.188 0.021-10.326 1.011-15.148 2.91-7.115 2.965-13.185 7.957-17.446 14.345s-6.522 13.879-6.498 21.538v775.872c-0.024 7.659 2.237 15.153 6.498 21.539s10.331 11.377 17.446 14.345c7.221 2.795 15.092 3.504 22.702 2.045s14.648-5.026 20.3-10.289l390.927-387.935c7.343-7.356 11.46-17.289 11.46-27.639 0-10.355-4.117-20.288-11.46-27.644v0z" />
<glyph unicode="&#xe910;" glyph-name="carret-up" data-tags="carret-up" d="M935.881 215.945c-2.965-7.117-7.957-13.184-14.345-17.446s-13.884-6.524-21.542-6.498h-775.986c-7.66-0.026-15.156 2.236-21.542 6.498s-11.379 10.33-14.347 17.446c-2.795 7.219-3.504 15.091-2.045 22.703 1.459 7.607 5.027 14.647 10.29 20.301l387.993 390.926c7.356 7.341 17.289 11.459 27.644 11.459s20.288-4.118 27.644-11.459l387.994-390.926c5.265-5.653 8.832-12.693 10.291-20.301 1.459-7.612 0.747-15.484-2.048-22.703z" />
<glyph unicode="&#xe911;" glyph-name="check" data-tags="check" d="M415.995 176c-6.305-0.009-12.55 1.229-18.375 3.644-5.825 2.411-11.116 5.952-15.569 10.415l-224 223.983c-8.962 9.007-13.984 21.205-13.968 33.911 0.017 12.71 5.073 24.892 14.058 33.877s21.168 14.042 33.876 14.059c12.708 0.017 24.904-5.005 33.914-13.965l190.064-190.042 414.055 414.037c9.028 8.881 21.197 13.835 33.86 13.783s24.789-5.105 33.745-14.059c8.956-8.954 14.007-21.083 14.059-33.745s-4.902-24.832-13.781-33.859l-448-447.986c-4.454-4.463-9.745-8-15.569-10.411-5.824-2.415-12.065-3.652-18.369-3.644z" />
<glyph unicode="&#xe912;" glyph-name="check-circle" data-tags="check-circle" d="M722.799 577.2c4.373-4.564 7.799-9.946 10.086-15.838s3.388-12.177 3.238-18.495c-0.149-6.318-1.545-12.542-4.105-18.324-2.56-5.777-6.238-10.991-10.82-15.343l-234.799-224c-8.956-8.508-20.847-13.235-33.199-13.201-12.331 0.085-24.179 4.796-33.201 13.201l-117.2 112c-9.23 8.802-14.583 20.915-14.883 33.668s4.478 25.101 13.283 34.33c8.805 9.229 20.916 14.583 33.669 14.886 12.752 0.299 25.102-4.48 34.331-13.286l84.001-80.397 201.6 192.398c4.561 4.372 9.946 7.799 15.838 10.086s12.177 3.387 18.492 3.238c6.319-0.148 12.548-1.543 18.325-4.105s10.991-6.237 15.343-10.819zM944 448c0-85.44-25.335-168.964-72.806-240.004-47.467-71.044-114.935-126.413-193.873-159.113-78.938-32.695-165.798-41.25-249.6-24.585-83.799 16.67-160.774 57.813-221.19 118.229s-101.56 137.395-118.229 221.193c-16.669 83.802-8.113 170.661 24.583 249.599s88.068 146.407 159.11 193.876c71.042 47.469 154.565 72.805 240.006 72.805 114.543-0.106 224.363-45.654 305.353-126.647 80.994-80.992 126.541-190.812 126.647-305.353zM848 448c0 66.453-19.708 131.417-56.627 186.672s-89.395 98.321-150.793 123.752c-61.393 25.431-128.951 32.085-194.129 19.12s-125.048-44.966-172.039-91.956-78.991-106.86-91.956-172.039c-12.965-65.178-6.311-132.736 19.12-194.129 25.431-61.397 68.497-113.873 123.752-150.793s120.218-56.627 186.671-56.627c89.079 0.107 174.481 35.541 237.47 98.53s98.423 148.39 98.53 237.47z" />
<glyph unicode="&#xe913;" glyph-name="check-circle-fill" data-tags="check-circle-fill" d="M512 874.667c-84.386 0-166.878-25.024-237.043-71.906s-124.852-113.519-157.145-191.482c-32.294-77.962-40.743-163.752-24.28-246.517s57.099-158.788 116.77-218.462c59.67-59.669 135.695-100.305 218.46-116.766 82.765-16.465 168.555-8.017 246.515 24.277 77.965 32.294 144.602 86.98 191.484 157.146s71.906 152.657 71.906 237.043c-0.218 113.093-45.239 221.491-125.205 301.459-79.97 79.969-188.369 124.991-301.461 125.207v0zM715.076 522.667l-240.41-229.743c-6.217-5.845-14.443-9.079-22.976-9.028-4.169-0.060-8.311 0.708-12.181 2.257-3.874 1.549-7.403 3.853-10.381 6.771l-120.205 114.871c-3.334 2.91-6.045 6.46-7.971 10.445s-3.027 8.316-3.236 12.736c-0.209 4.42 0.478 8.836 2.019 12.983s3.905 7.94 6.95 11.149c3.045 3.213 6.707 5.773 10.767 7.535 4.060 1.758 8.433 2.675 12.858 2.701 4.425 0.030 8.809-0.841 12.888-2.551 4.080-1.715 7.772-4.233 10.854-7.407l97.639-93.129 218.257 208c6.383 5.568 14.669 8.453 23.13 8.052s16.435-4.055 22.263-10.2c5.828-6.145 9.054-14.305 9.003-22.774-0.047-8.468-3.366-16.592-9.267-22.668z" />
<glyph unicode="&#xe914;" glyph-name="chevron-down" data-tags="chevron-down" d="M512 250.667c-12.723 0.055-24.926 5.077-34.001 13.999l-319.999 320.001c-9.017 9.017-14.083 21.248-14.083 34s5.066 24.983 14.083 34c9.018 9.017 21.248 14.083 34 14.083s24.983-5.066 34-14.083l286-285.998 285.999 285.998c9.020 9.017 21.248 14.083 34.001 14.083s24.981-5.066 34.001-14.083c9.015-9.018 14.080-21.248 14.080-34s-5.065-24.983-14.080-34l-320-320.001c-9.075-8.922-21.278-13.943-34.001-13.999z" />
<glyph unicode="&#xe915;" glyph-name="chevron-left" data-tags="chevron-left" d="M682.658 80c-12.723 0.055-24.926 5.077-33.997 13.999l-320.002 320c-4.475 4.459-8.026 9.758-10.448 15.595-2.423 5.833-3.67 12.087-3.67 18.406s1.247 12.574 3.67 18.406c2.423 5.837 5.973 11.136 10.448 15.595l320.002 319.999c9.015 9.017 21.244 14.083 33.997 14.083 6.315 0 12.57-1.244 18.402-3.66s11.136-5.958 15.599-10.423c4.467-4.465 8.009-9.766 10.423-15.599s3.661-12.087 3.661-18.401c0-6.314-1.246-12.567-3.661-18.4s-5.956-11.135-10.423-15.599l-285.999-286 285.999-285.999c4.476-4.459 8.026-9.758 10.449-15.595 2.423-5.833 3.669-12.087 3.669-18.406s-1.246-12.574-3.669-18.406c-2.423-5.837-5.973-11.136-10.449-15.595-9.075-8.922-21.274-13.943-34.001-13.999v0z" />
<glyph unicode="&#xe916;" glyph-name="chevron-right" data-tags="chevron-right" d="M341.326 80c-12.725 0.055-24.925 5.077-34 13.999-4.475 4.459-8.026 9.758-10.448 15.595-2.423 5.833-3.67 12.087-3.67 18.406s1.247 12.574 3.67 18.406c2.423 5.837 5.973 11.136 10.448 15.595l286.001 285.999-286.001 286c-9.018 9.017-14.083 21.248-14.083 34 0 6.314 1.244 12.567 3.66 18.401s5.958 11.134 10.423 15.599c4.465 4.465 9.766 8.006 15.599 10.423s12.086 3.66 18.4 3.66c12.753 0 24.983-5.066 34-14.083l320-319.999c4.476-4.459 8.026-9.758 10.449-15.595 2.423-5.833 3.669-12.087 3.669-18.406s-1.246-12.574-3.669-18.406c-2.423-5.837-5.973-11.136-10.449-15.595l-320-320c-9.075-8.922-21.275-13.943-34-13.999v0z" />
<glyph unicode="&#xe917;" glyph-name="chevron-up" data-tags="chevron-up" d="M832 229.342c-12.723 0.055-24.926 5.077-34.001 13.999l-285.999 285.999-286-285.999c-9.017-9.020-21.248-14.084-34-14.084s-24.983 5.065-34 14.084c-9.017 9.015-14.083 21.248-14.083 34.001s5.066 24.981 14.083 33.997l319.999 320.002c4.459 4.475 9.758 8.026 15.595 10.448 5.833 2.423 12.087 3.67 18.406 3.67s12.574-1.247 18.406-3.67c5.837-2.423 11.136-5.973 15.595-10.448l320-320.002c4.476-4.459 8.026-9.758 10.449-15.59 2.419-5.837 3.669-12.092 3.669-18.406 0-6.319-1.25-12.574-3.669-18.411-2.423-5.833-5.973-11.132-10.449-15.59-9.075-8.922-21.278-13.943-34.001-13.999v0z" />
<glyph unicode="&#xe918;" glyph-name="clock" data-tags="clock" d="M512 880c-85.441 0-168.964-25.336-240.006-72.805s-126.413-114.938-159.11-193.876c-32.697-78.938-41.252-165.797-24.583-249.599 16.669-83.797 57.813-160.777 118.229-221.193s137.391-101.559 221.19-118.229c83.802-16.666 170.662-8.111 249.6 24.585 78.938 32.7 146.406 88.068 193.873 159.113 47.471 71.040 72.806 154.564 72.806 240.004-0.107 114.541-45.653 224.361-126.647 305.353-80.99 80.993-190.81 126.541-305.353 126.647zM512 112c-66.453 0-131.416 19.708-186.671 56.627s-98.321 89.395-123.752 150.793c-25.431 61.393-32.085 128.951-19.12 194.129s44.966 125.049 91.956 172.039 106.86 78.991 172.039 91.956c65.178 12.965 132.736 6.311 194.129-19.12 61.397-25.431 113.873-68.497 150.793-123.752s56.627-120.218 56.627-186.672c-0.107-89.079-35.541-174.481-98.53-237.47s-148.39-98.423-237.47-98.53v0zM784 448c0-12.732-5.056-24.939-14.059-33.941s-21.21-14.059-33.941-14.059h-224c-12.732 0-24.939 5.056-33.941 14.059s-14.059 21.21-14.059 33.941v224c0 12.73 5.056 24.94 14.059 33.941s21.21 14.059 33.941 14.059c12.732 0 24.939-5.057 33.941-14.059s14.059-21.211 14.059-33.941v-176h176c12.732 0 24.939-5.056 33.941-14.059s14.059-21.21 14.059-33.941z" />
<glyph unicode="&#xe919;" glyph-name="close" data-tags="close" d="M833.946 193.941c8.879-9.028 13.833-21.197 13.781-33.86s-5.103-24.794-14.059-33.745c-8.951-8.956-21.082-14.007-33.745-14.059s-24.832 4.902-33.86 13.781l-254.059 254.059-254.060-254.059c-9.027-8.879-21.196-13.833-33.859-13.781s-24.792 5.103-33.745 14.059c-8.954 8.951-14.007 21.082-14.059 33.745s4.902 24.832 13.783 33.86l254.057 254.059-254.057 254.060c-8.881 9.027-13.835 21.197-13.783 33.859s5.105 24.791 14.059 33.745c8.954 8.954 21.083 14.007 33.745 14.059s24.832-4.903 33.859-13.783l254.060-254.057 254.059 254.057c9.028 8.881 21.197 13.835 33.86 13.783s24.794-5.105 33.745-14.059c8.956-8.954 14.007-21.083 14.059-33.745s-4.902-24.833-13.781-33.859l-254.059-254.060 254.059-254.059z" />
<glyph unicode="&#xe91a;" glyph-name="copylink" data-tags="copy link" d="M864 848h-512c-12.73 0-24.94-5.057-33.941-14.059s-14.059-21.211-14.059-33.941v-144h-144c-12.73 0-24.94-5.057-33.941-14.059s-14.059-21.211-14.059-33.941v-512c0-12.732 5.057-24.939 14.059-33.941s21.211-14.059 33.941-14.059h512c12.732 0 24.939 5.056 33.941 14.059s14.059 21.21 14.059 33.941v144h144c12.732 0 24.939 5.056 33.941 14.059s14.059 21.21 14.059 33.941v512c0 12.73-5.056 24.94-14.059 33.941s-21.21 14.059-33.941 14.059zM624 144h-416v416h416v-416zM816 336h-96v272c0 12.73-5.056 24.94-14.059 33.941s-21.21 14.059-33.941 14.059h-272v96h416v-416z" />
<glyph unicode="&#xe91b;" glyph-name="create" data-tags="create" d="M882.202 639.605l-220.753 221.235c-8.964 8.776-20.975 13.731-33.506 13.827h-378.435c-20.878-0.104-40.871-8.462-55.634-23.257s-23.103-34.832-23.206-55.756v-695.307c0.104-20.924 8.443-40.964 23.206-55.757 14.763-14.797 34.756-23.155 55.634-23.258h567.653c20.877 0.102 40.87 8.461 55.633 23.258 14.763 14.793 23.104 34.833 23.206 55.757v505.677c-0.094 12.56-5.039 24.595-13.798 33.58v0zM659.477 728.494l90.667-90.864h-90.667v90.864zM265.275 116.147v663.705h299.593v-189.63c0-12.573 4.983-24.631 13.858-33.522 8.87-8.89 20.902-13.885 33.446-13.885h189.218v-426.668h-536.116zM675.247 353.186c0-12.574-4.983-24.631-13.854-33.523-8.875-8.892-20.907-13.884-33.451-13.884h-47.305v-47.407c0-12.574-4.983-24.631-13.854-33.523-8.875-8.892-20.907-13.888-33.451-13.888s-24.576 4.996-33.451 13.888c-8.87 8.892-13.854 20.949-13.854 33.523v47.407h-47.305c-12.546 0-24.578 4.992-33.449 13.884s-13.855 20.949-13.855 33.523c0 12.574 4.984 24.631 13.855 33.523 8.871 8.887 20.903 13.884 33.449 13.884h47.305v47.407c0 12.574 4.983 24.631 13.854 33.523 8.875 8.887 20.907 13.884 33.451 13.884s24.576-4.996 33.451-13.884c8.87-8.892 13.854-20.949 13.854-33.523v-47.407h47.305c12.544 0 24.576-4.996 33.451-13.884 8.87-8.892 13.854-20.949 13.854-33.523z" />
<glyph unicode="&#xe91c;" glyph-name="cross-circle" data-tags="cross-circle" d="M512 880c-85.441 0-168.964-25.336-240.006-72.805s-126.413-114.938-159.11-193.876c-32.697-78.938-41.252-165.797-24.583-249.599 16.669-83.797 57.813-160.777 118.229-221.193s137.391-101.559 221.19-118.229c83.802-16.666 170.662-8.111 249.6 24.585 78.938 32.7 146.406 88.068 193.873 159.113 47.471 71.040 72.806 154.564 72.806 240.004-0.107 114.541-45.653 224.361-126.647 305.353-80.99 80.993-190.81 126.541-305.353 126.647zM512 112c-66.453 0-131.416 19.708-186.671 56.627s-98.321 89.395-123.752 150.793c-25.431 61.393-32.085 128.951-19.12 194.129s44.966 125.049 91.956 172.039 106.86 78.991 172.039 91.956c65.178 12.965 132.736 6.311 194.129-19.12 61.397-25.431 113.873-68.497 150.793-123.752s56.627-120.218 56.627-186.672c-0.107-89.079-35.541-174.481-98.53-237.47s-148.39-98.423-237.47-98.53zM674.001 542l-93.999-94 93.999-93.999c4.476-4.459 8.026-9.758 10.449-15.595 2.419-5.833 3.669-12.087 3.669-18.406s-1.25-12.574-3.669-18.406c-2.423-5.837-5.973-11.136-10.449-15.595-9.058-8.939-21.274-13.952-34.001-13.952s-24.943 5.013-34.001 13.952l-93.999 93.999-94-93.999c-9.058-8.939-21.273-13.952-34-13.952s-24.942 5.013-34 13.952c-4.475 4.459-8.026 9.758-10.448 15.595-2.423 5.833-3.67 12.087-3.67 18.406s1.247 12.574 3.67 18.406c2.423 5.837 5.973 11.136 10.448 15.595l94.002 93.999-94.002 94c-9.018 9.018-14.083 21.248-14.083 34s5.066 24.983 14.083 34c9.017 9.017 21.248 14.083 34 14.083s24.983-5.066 34-14.083l94-93.998 93.999 93.998c9.020 9.017 21.248 14.083 34.001 14.083s24.981-5.066 34.001-14.083c9.015-9.018 14.084-21.248 14.084-34s-5.069-24.983-14.084-34z" />
<glyph unicode="&#xe91d;" glyph-name="dasharrow-left" data-tags="dasharrow-left" d="M938.667 426.667c0-12.898-5.188-25.271-14.421-34.394-9.229-9.122-21.751-14.246-34.807-14.246h-471.797l211.283-208.747c4.591-4.518 8.23-9.89 10.714-15.799 2.487-5.914 3.767-12.254 3.767-18.654s-1.28-12.74-3.767-18.654c-2.483-5.909-6.123-11.281-10.714-15.799-9.293-9.058-21.82-14.14-34.871-14.14-13.056 0-25.583 5.082-34.871 14.14l-295.386 291.84c-4.59 4.518-8.231 9.89-10.716 15.799-2.485 5.914-3.764 12.254-3.764 18.654s1.279 12.74 3.764 18.654c2.484 5.909 6.126 11.281 10.716 15.799l295.386 291.84c9.246 9.137 21.79 14.271 34.871 14.271 6.477 0 12.89-1.26 18.871-3.709s11.422-6.038 16-10.562c4.578-4.524 8.213-9.896 10.688-15.807 2.479-5.911 3.755-12.247 3.755-18.646s-1.276-12.734-3.755-18.646c-2.475-5.911-6.11-11.283-10.688-15.807l-211.283-208.747h471.797c13.056 0 25.579-5.124 34.807-14.246 9.233-9.122 14.421-21.495 14.421-34.394zM134.564 21.333c-13.057 0-25.579 5.124-34.812 14.246s-14.419 21.495-14.419 34.394v713.387c0 12.9 5.187 25.272 14.419 34.394s21.755 14.246 34.812 14.246c13.057 0 25.579-5.125 34.811-14.246s14.419-21.493 14.419-34.394v-713.387c0-12.898-5.187-25.271-14.419-34.394s-21.754-14.246-34.811-14.246z" />
<glyph unicode="&#xe91e;" glyph-name="dasharrow-right" data-tags="dasharrow-right" d="M760.205 461.12c4.591-4.518 8.23-9.89 10.718-15.799 2.483-5.914 3.763-12.254 3.763-18.654s-1.28-12.74-3.763-18.654c-2.487-5.909-6.127-11.281-10.718-15.799l-295.386-291.84c-9.289-9.058-21.815-14.14-34.871-14.14-13.053 0-25.581 5.082-34.871 14.14-4.59 4.518-8.231 9.89-10.716 15.799-2.485 5.914-3.764 12.254-3.764 18.654s1.279 12.74 3.764 18.654c2.485 5.909 6.127 11.281 10.716 15.799l211.28 208.747h-471.793c-13.057 0-25.579 5.124-34.812 14.246s-14.419 21.495-14.419 34.394c0 12.898 5.187 25.271 14.419 34.394s21.755 14.246 34.812 14.246h471.793l-211.28 208.747c-9.249 9.137-14.444 21.531-14.444 34.453 0 6.399 1.275 12.734 3.754 18.646s6.111 11.283 10.691 15.807c4.579 4.524 10.016 8.113 15.999 10.562s12.396 3.709 18.871 3.709c13.082 0 25.626-5.134 34.871-14.271l295.386-291.84zM889.438 832c-13.060 0-25.579-5.125-34.812-14.246s-14.421-21.493-14.421-34.394v-713.387c0-12.898 5.188-25.271 14.421-34.394s21.751-14.246 34.812-14.246c13.056 0 25.579 5.124 34.807 14.246 9.233 9.122 14.421 21.495 14.421 34.394v713.387c0 12.9-5.188 25.272-14.421 34.394-9.229 9.122-21.751 14.246-34.807 14.246z" />
<glyph unicode="&#xe91f;" glyph-name="delete" data-tags="delete" d="M863.983 768h-143.983v48c-0.034 29.694-11.844 58.163-32.841 79.16s-49.463 32.807-79.159 32.84h-192c-29.694-0.033-58.163-11.843-79.16-32.84s-32.807-49.466-32.84-79.16v-48h-144.016c-12.73 0-24.939-5.057-33.941-14.059s-14.059-21.211-14.059-33.941c0-12.73 5.057-24.94 14.059-33.941s21.211-14.059 33.941-14.059h16v-544c0.024-21.21 8.461-41.545 23.459-56.542s35.332-23.433 56.541-23.458h511.999c21.21 0.026 41.545 8.461 56.542 23.458s23.437 35.332 23.458 56.542v544h16c12.732 0 24.939 5.057 33.941 14.059s14.059 21.211 14.059 33.941c0 12.73-5.056 24.94-14.059 33.941s-21.21 14.059-33.941 14.059v0zM400 816c0.005 4.242 1.693 8.308 4.692 11.308s7.066 4.687 11.308 4.692h192c4.241-0.005 8.307-1.693 11.307-4.692s4.689-7.066 4.693-11.308v-48h-224v48zM751.983 144h-479.999v528h479.999v-528zM464 544v-256c0-12.732-5.056-24.939-14.059-33.941s-21.21-14.059-33.941-14.059c-12.73 0-24.94 5.056-33.941 14.059s-14.059 21.21-14.059 33.941v256c0 12.73 5.057 24.94 14.059 33.941s21.211 14.059 33.941 14.059c12.731 0 24.938-5.057 33.941-14.059s14.059-21.211 14.059-33.941zM656 544v-256c0-12.732-5.056-24.939-14.059-33.941s-21.21-14.059-33.941-14.059c-12.732 0-24.939 5.056-33.941 14.059s-14.059 21.21-14.059 33.941v256c0 12.73 5.056 24.94 14.059 33.941s21.21 14.059 33.941 14.059c12.732 0 24.939-5.057 33.941-14.059s14.059-21.211 14.059-33.941z" />
<glyph unicode="&#xe920;" glyph-name="diamond" data-tags="diamond" d="M257.39 874.667c-4.44-0.008-8.655-2.277-11.544-6.213l-155.052-211.027c-6.017-5.872-7.227-16.124-2.801-23.677 0.041-0.040 0.082-0.087 0.116-0.135 0.218-0.365 0.449-0.722 0.687-1.071l0.116-0.198v-0.008c0.041-0.064 0.075-0.135 0.115-0.198l410.942-603.975c0.094-0.132 0.192-0.269 0.286-0.401 0.209-0.294 0.427-0.589 0.657-0.866 0.132-0.137 0.269-0.269 0.405-0.405 0.166-0.205 0.337-0.405 0.516-0.602 0.333-0.358 0.687-0.691 1.045-1.011 0.034-0.021 0.077-0.047 0.107-0.068 0.294-0.239 0.593-0.469 0.9-0.691 0.171-0.111 0.341-0.222 0.516-0.333 0.23-0.166 0.469-0.32 0.713-0.469 0.247-0.141 0.491-0.277 0.742-0.405 0.171-0.073 0.346-0.132 0.516-0.196 0.277-0.154 0.559-0.286 0.836-0.405 0.307-0.128 0.61-0.239 0.917-0.341 0.196-0.047 0.388-0.090 0.58-0.137 0.277-0.068 0.555-0.141 0.836-0.196 0.149-0.047 0.303-0.098 0.461-0.137 0.998-0.158 2.018-0.205 3.034-0.132h0.051c0.32 0.030 0.64 0.077 0.951 0.132 0.819 0.128 1.626 0.324 2.415 0.606 0.341 0.115 0.678 0.252 1.015 0.401 0.371 0.183 0.738 0.393 1.092 0.606 0.102 0.047 0.196 0.085 0.294 0.132 0.034 0.026 0.073 0.047 0.115 0.073 0.427 0.256 0.841 0.533 1.242 0.832 0.115 0.090 0.23 0.175 0.35 0.273 0.094 0.085 0.196 0.171 0.29 0.26 0.311 0.252 0.619 0.525 0.917 0.802 0.055 0.073 0.115 0.132 0.171 0.205 0.708 0.7 1.353 1.476 1.937 2.317l411.187 604.319c2.752 3.809 4.019 8.792 3.473 13.735-0.542 4.943-2.842 9.395-6.327 12.268l-154.231 209.917c-2.88 3.936-7.095 6.205-11.537 6.213l-509.053 0.209zM264.406 839.119h71.651l-77.512-177.741h-124.715l130.575 177.741zM370.235 839.119h283.277l77.487-177.741h-438.25l77.486 177.741zM687.697 839.119h71.65l130.577-177.741h-124.749l-77.478 177.741zM132.226 625.83h126.028l183.88-455.462-309.907 455.462zM291.921 625.83h439.923l-219.964-544.84-219.959 544.84zM765.538 625.83h125.995l-309.892-455.462 183.898 455.462z" />
<glyph unicode="&#xe921;" glyph-name="doc" data-tags="doc" d="M213.319 282.556h-59.724c-6.788 0-13.299-2.752-18.099-7.65s-7.497-11.541-7.497-18.47v-208.981c0-6.925 2.697-13.572 7.497-18.47s11.311-7.65 18.099-7.65h59.724c33.942 0 66.494 13.76 90.495 38.255s37.484 57.715 37.484 92.356c0 34.641-13.484 67.861-37.484 92.356s-56.553 38.255-90.495 38.255zM213.319 73.579h-34.128v156.732h34.128c20.365 0 39.897-8.256 54.297-22.95 14.4-14.699 22.49-34.633 22.49-55.415s-8.090-40.717-22.49-55.411c-14.4-14.699-33.932-22.955-54.297-22.955v0zM520.469 282.556c-65.698 0-119.447-58.773-119.447-130.611s53.749-130.611 119.447-130.611c65.694 0 119.445 58.773 119.445 130.611s-53.751 130.611-119.445 130.611zM520.469 73.579c-37.542 0-68.254 35.264-68.254 78.366s30.711 78.366 68.254 78.366c37.542 0 68.254-35.264 68.254-78.366s-30.711-78.366-68.254-78.366zM889.476 88.815c2.253-2.564 3.985-5.564 5.094-8.815 1.114-3.255 1.583-6.699 1.387-10.142-0.201-3.439-1.062-6.805-2.543-9.903-1.476-3.098-3.541-5.867-6.071-8.145-21.018-19.511-48.38-30.37-76.787-30.477-65.698 0-119.45 58.773-119.45 130.611s53.751 130.611 119.45 130.611c28.407-0.107 55.77-10.965 76.787-30.477 2.53-2.278 4.595-5.047 6.071-8.145 1.481-3.098 2.342-6.464 2.543-9.903 0.196-3.439-0.273-6.886-1.387-10.138-1.109-3.255-2.842-6.251-5.094-8.819-2.231-2.607-4.954-4.723-8.009-6.229-3.055-1.502-6.374-2.359-9.758-2.526-3.388-0.162-6.771 0.375-9.95 1.583-3.179 1.203-6.084 3.051-8.546 5.431-11.703 10.799-26.88 16.841-42.658 16.977-37.542 0-68.258-35.264-68.258-78.366s30.716-78.366 68.258-78.366c15.778 0.137 30.955 6.178 42.658 16.977 2.462 2.381 5.367 4.228 8.546 5.436 3.179 1.203 6.562 1.741 9.95 1.579 3.383-0.162 6.703-1.024 9.758-2.526 3.055-1.506 5.777-3.622 8.009-6.229v0zM170.66 404.463c6.788 0 13.299 2.752 18.099 7.65s7.497 11.541 7.497 18.47v383.128c0 2.309 0.899 4.524 2.499 6.157s3.77 2.551 6.033 2.551h383.936v-217.687c0-6.928 2.697-13.572 7.497-18.471s11.311-7.651 18.099-7.651h213.299v-148.027c0-6.929 2.697-13.572 7.497-18.47s11.311-7.65 18.099-7.65c6.788 0 13.299 2.752 18.099 7.65s7.497 11.541 7.497 18.47v174.149c0.009 3.485-0.666 6.938-1.984 10.153s-3.255 6.128-5.692 8.568l-238.895 243.373c-2.278 2.518-5.052 4.518-8.141 5.868s-6.417 2.021-9.779 1.968h-409.531c-15.84 0-31.031-6.422-42.231-17.852s-17.493-26.934-17.493-43.1v-383.128c0-6.929 2.697-13.572 7.497-18.47s11.311-7.65 18.099-7.65zM639.915 785.412l151.445-154.557h-151.445v154.557z" />
<glyph unicode="&#xe922;" glyph-name="doublecheck" data-tags="double check" d="M593.634 569.618l-293.274-301.667c-7.547-7.663-17.724-11.959-28.328-11.959s-20.781 4.297-28.328 11.959l-146.638 150.835c-7.513 7.727-11.734 18.206-11.734 29.137 0 10.927 4.221 21.41 11.734 29.137s17.703 12.070 28.328 12.070c10.625 0 20.815-4.343 28.328-12.070l118.31-121.694 264.948 272.528c7.514 7.728 17.702 12.070 28.326 12.070s20.817-4.341 28.326-12.070c7.514-7.728 11.738-18.209 11.738-29.138s-4.224-21.411-11.738-29.138v0zM926.903 627.894c-3.716 3.835-8.128 6.878-12.992 8.954-4.86 2.076-10.074 3.145-15.334 3.145-5.265 0-10.475-1.069-15.339-3.145-4.86-2.077-9.276-5.119-12.988-8.954l-264.951-272.528-25.327 25.711c-3.558 4.395-7.966 7.979-12.941 10.522-4.979 2.543-10.419 3.994-15.974 4.254-5.551 0.26-11.098-0.674-16.282-2.739-5.18-2.065-9.89-5.222-13.82-9.267-3.93-4.041-6.997-8.883-9.007-14.217-2.010-5.329-2.918-11.034-2.662-16.747 0.252-5.713 1.66-11.307 4.134-16.427 2.47-5.12 5.956-9.655 10.227-13.312l53.325-55.194c7.548-7.663 17.724-11.959 28.326-11.959 10.607 0 20.783 4.297 28.331 11.959l293.274 301.667c3.729 3.822 6.686 8.363 8.704 13.363s3.059 10.361 3.059 15.775c0 5.414-1.041 10.775-3.059 15.775s-4.975 9.541-8.704 13.363v0z" />
<glyph unicode="&#xe923;" glyph-name="double-carret-left" data-tags="double-carret-left" d="M865.993 161.916c4.476-4.459 8.026-9.758 10.449-15.59 2.423-5.837 3.669-12.092 3.669-18.411 0-6.315-1.246-12.57-3.669-18.406-2.423-5.833-5.973-11.132-10.449-15.59-9.058-8.943-21.274-13.956-34.001-13.956s-24.939 5.013-33.997 13.956l-320 320c-4.476 4.459-8.026 9.758-10.449 15.59-2.423 5.837-3.669 12.092-3.669 18.406 0 6.319 1.246 12.574 3.669 18.411 2.423 5.833 5.973 11.132 10.449 15.59l320 320.001c9.015 9.018 21.244 14.083 33.997 14.083s24.986-5.066 34.001-14.083c9.020-9.017 14.084-21.248 14.084-34s-5.065-24.983-14.084-34l-285.999-286.002 285.999-285.999zM259.993 447.915l286 286.002c4.467 4.465 8.009 9.766 10.423 15.599s3.661 12.086 3.661 18.401c0 6.314-1.246 12.567-3.661 18.4s-5.956 11.135-10.423 15.599c-4.463 4.465-9.766 8.007-15.599 10.423s-12.087 3.66-18.402 3.66c-12.753 0-24.981-5.066-33.997-14.083l-320.002-320.001c-4.475-4.459-8.026-9.758-10.448-15.59-2.423-5.837-3.67-12.092-3.67-18.411 0-6.315 1.247-12.57 3.67-18.406 2.423-5.833 5.973-11.132 10.448-15.59l320.002-320c9.058-8.943 21.269-13.956 33.997-13.956s24.943 5.013 34.001 13.956c4.476 4.459 8.026 9.758 10.449 15.59 2.423 5.837 3.669 12.092 3.669 18.406 0 6.319-1.246 12.574-3.669 18.411-2.423 5.833-5.973 11.132-10.449 15.59l-286 285.999z" />
<glyph unicode="&#xe924;" glyph-name="double-carret-right" data-tags="double-carret-right" d="M535.326 413.999l-320-320c-9.058-8.939-21.273-13.952-34-13.952s-24.942 5.013-34 13.952c-4.475 4.459-8.026 9.758-10.448 15.595-2.423 5.833-3.67 12.087-3.67 18.406s1.247 12.574 3.67 18.406c2.423 5.837 5.973 11.136 10.448 15.595l286.001 285.999-286.001 286c-9.018 9.017-14.083 21.248-14.083 34 0 6.314 1.244 12.567 3.66 18.401s5.958 11.134 10.423 15.599c4.465 4.465 9.766 8.006 15.599 10.423s12.086 3.66 18.4 3.66c12.753 0 24.983-5.066 34-14.083l320-319.999c4.476-4.459 8.026-9.758 10.449-15.595 2.423-5.833 3.669-12.087 3.669-18.406s-1.246-12.574-3.669-18.406c-2.423-5.837-5.973-11.136-10.449-15.595v0zM855.326 482.001l-320 319.999c-4.463 4.465-9.766 8.006-15.599 10.423s-12.087 3.66-18.402 3.66c-6.315 0-12.565-1.244-18.398-3.66-5.837-2.417-11.136-5.958-15.599-10.423-9.020-9.018-14.084-21.248-14.084-34s5.065-24.983 14.084-34l285.999-286-285.999-285.999c-4.476-4.459-8.026-9.758-10.449-15.595-2.423-5.833-3.669-12.087-3.669-18.406s1.246-12.574 3.669-18.406c2.423-5.837 5.973-11.136 10.449-15.595 9.058-8.939 21.269-13.952 33.997-13.952s24.943 5.013 34.001 13.952l320 320c4.476 4.459 8.026 9.758 10.449 15.595 2.423 5.833 3.669 12.087 3.669 18.406s-1.246 12.574-3.669 18.406c-2.423 5.837-5.973 11.136-10.449 15.595v0z" />
<glyph unicode="&#xe925;" glyph-name="download" data-tags="download" d="M512 257.335c-7.113 0-13.777 1.101-20.002 3.307-6.221 2.202-11.998 5.99-17.331 11.358l-192 192c-9.778 9.779-14.667 22.221-14.667 37.333s4.889 27.554 14.667 37.333c9.778 9.778 22.453 14.88 38.027 15.307s28.231-4.231 37.973-13.973l100-100v381.333c0 15.111 5.12 27.787 15.36 38.027s22.899 15.342 37.973 15.307c15.113 0 27.785-5.12 38.025-15.36s15.343-22.898 15.309-37.973v-381.333l99.998 100c9.779 9.778 22.455 14.453 38.029 14.027s28.233-5.547 37.973-15.36c9.779-9.779 14.665-22.221 14.665-37.333s-4.885-27.554-14.665-37.333l-192-192c-5.333-5.333-11.11-9.118-17.335-11.358-6.221-2.24-12.885-3.345-19.998-3.307zM192 21.333c-29.333 0-54.453 10.453-75.36 31.36s-31.342 46.007-31.307 75.307v106.667c0 15.113 5.12 27.789 15.36 38.029s22.898 15.339 37.973 15.305c15.111 0 27.787-5.12 38.027-15.36s15.342-22.899 15.307-37.973v-106.667h640v106.667c0 15.113 5.12 27.789 15.36 38.029s22.899 15.339 37.973 15.305c15.113 0 27.785-5.12 38.025-15.36s15.343-22.899 15.309-37.973v-106.667c0-29.333-10.453-54.451-31.36-75.358s-46.007-31.343-75.307-31.309h-640z" />
<glyph unicode="&#xe926;" glyph-name="drag" data-tags="drag" d="M413.539 793.397c0-16.074-4.62-31.787-13.275-45.151s-20.957-23.782-35.351-29.932c-14.393-6.151-30.231-7.761-45.511-4.625s-29.315 10.876-40.331 22.242c-11.016 11.366-18.518 25.847-21.558 41.612s-1.479 32.105 4.483 46.956c5.962 14.85 16.058 27.543 29.012 36.473s28.183 13.696 43.761 13.696c20.891 0 40.926-8.562 55.698-23.803s23.071-35.913 23.071-57.466zM689.229 712.127c15.582 0 30.81 4.766 43.763 13.696s23.049 21.623 29.013 36.473c5.961 14.85 7.522 31.191 4.48 46.956-3.038 15.765-10.539 30.246-21.555 41.612s-25.054 19.106-40.333 22.242c-15.279 3.136-31.117 1.526-45.508-4.625-14.396-6.151-26.697-16.568-35.354-29.932-8.653-13.365-13.274-29.078-13.274-45.151 0-21.554 8.299-42.225 23.070-57.466s34.807-23.803 55.697-23.803zM334.769 529.271c-15.579 0-30.808-4.77-43.761-13.696-12.954-8.93-23.050-21.623-29.012-36.476-5.962-14.848-7.522-31.189-4.483-46.955s10.542-30.246 21.558-41.613c11.016-11.366 25.051-19.106 40.331-22.242s31.118-1.523 45.511 4.625c14.393 6.153 26.695 16.567 35.351 29.935 8.655 13.363 13.275 29.077 13.275 45.15 0 21.555-8.299 42.227-23.071 57.468s-34.807 23.804-55.698 23.804zM689.229 529.271c-15.578 0-30.805-4.77-43.759-13.696-12.954-8.93-23.049-21.623-29.013-36.476-5.961-14.848-7.522-31.189-4.48-46.955 3.038-15.765 10.539-30.246 21.555-41.613s25.054-19.106 40.333-22.242c15.279-3.136 31.117-1.523 45.508 4.625 14.396 6.153 26.697 16.567 35.354 29.935 8.653 13.363 13.274 29.077 13.274 45.15 0 21.555-8.299 42.227-23.070 57.468s-34.807 23.804-55.701 23.804zM334.769 183.872c-15.579 0-30.808-4.766-43.761-13.696s-23.050-21.623-29.012-36.471c-5.962-14.852-7.522-31.194-4.483-46.955 3.040-15.765 10.542-30.246 21.558-41.613s25.051-19.106 40.331-22.242c15.28-3.136 31.118-1.527 45.511 4.625s26.695 16.567 35.351 29.931c8.655 13.367 13.275 29.077 13.275 45.154 0 21.551-8.299 42.223-23.071 57.463s-34.807 23.804-55.698 23.804zM689.229 183.872c-15.578 0-30.805-4.766-43.759-13.696s-23.049-21.623-29.013-36.471c-5.961-14.852-7.522-31.194-4.48-46.955 3.038-15.765 10.539-30.246 21.555-41.613s25.054-19.106 40.333-22.242c15.279-3.136 31.117-1.527 45.508 4.625 14.396 6.153 26.697 16.567 35.354 29.931 8.653 13.367 13.274 29.077 13.274 45.154 0 21.551-8.299 42.223-23.070 57.463s-34.807 23.804-55.701 23.804z" />
<glyph unicode="&#xe927;" glyph-name="edit" data-tags="edit" d="M907.315 664.568l-178.748 178.744c-15.002 15.003-35.349 23.431-56.567 23.431s-41.566-8.428-56.567-23.431l-479.996-479.997c-7.453-7.411-13.362-16.226-17.385-25.937-4.023-9.707-6.080-20.122-6.051-30.63v-178.748c0.024-21.21 8.46-41.545 23.458-56.542s35.332-23.433 56.542-23.458h192c12.73 0 24.939 5.056 33.94 14.059l489.379 489.373c14.98 15.015 23.394 35.358 23.394 56.568s-8.414 41.553-23.394 56.568h-0.004zM364.116 144h-156.116v156.122l336 335.998 156.122-156.12-336.005-336zM768 547.88l-156.122 156.12 60.122 60.12 156.122-156.12-60.122-60.12z" />
<glyph unicode="&#xe928;" glyph-name="emoji" data-tags="emoji" d="M85.333 448c0 235.52 190.72 426.667 426.24 426.667 235.947 0 427.093-191.147 427.093-426.667s-191.147-426.667-427.093-426.667c-235.52 0-426.24 191.147-426.24 426.667zM170.667 448c0-188.587 152.747-341.333 341.333-341.333s341.333 152.747 341.333 341.333c0 188.587-152.747 341.333-341.333 341.333s-341.333-152.747-341.333-341.333zM426.667 554.667c0-35.345-28.654-64-64-64s-64 28.655-64 64c0 35.346 28.654 64 64 64s64-28.654 64-64zM725.333 554.667c0-35.345-28.655-64-64-64s-64 28.655-64 64c0 35.346 28.655 64 64 64s64-28.654 64-64zM512 192c97.28 0 180.053 70.827 213.333 170.667h-426.667c33.28-99.84 116.053-170.667 213.333-170.667z" />
<glyph unicode="&#xe929;" glyph-name="empty-state" data-tags="empty-state" d="M494.635 591.218c-1.323-6.597 0.986-13.399 6.025-17.749 2.957-2.384 6.613-3.702 10.377-3.748 2.428-0.518 4.941-0.518 7.369 0l89.711 46.071c28.169-8.974 57.527-13.468 87.036-13.315 112.478 0 200.853 60.064 200.853 136.505 0 63.133-59.255 116.029-147.631 132.406v0.008c-9.242 1.691-18.082-4.571-19.746-13.993-1.66-9.423 4.48-18.442 13.726-20.133 70.972-10.58 120.512-51.189 120.512-96.24 0-55.622-76.659-102.379-167.377-102.379-28.215-0.099-56.265 4.509-83.017 13.651-4.041 1.873-8.683 1.873-12.723 0l-63.266-34.127 14.391 59.721c1.374 5.424-0.009 11.19-3.678 15.357-11.985 12.942-18.795 29.982-19.085 47.777 0 45.727 52.224 87.365 123.857 99.309 9.207 1.569 15.471 10.39 14.063 19.789-1.545 9.385-10.189 15.776-19.418 14.336-89.382-15.014-151.974-68.253-151.974-133.093 0.26-22.701 7.91-44.668 21.756-62.447l-21.76-87.707zM268.682 396.698l599.9 0.367c5.184-0.030 10.069-2.513 13.218-6.724 3.145-4.207 4.198-9.668 2.846-14.78v0.009l-28.117-109.547c-2.313-9.434-11.682-15.159-20.924-12.8-9.242 2.355-14.861 11.9-12.553 21.329l22.758 88.043h-564.394l-82.688-307.136h541.956c6.793 0.124 13.367 2.475 18.739 6.72 5.367 4.25 9.246 10.155 11.055 16.828l25.442 98.965c2.406 9.421 11.84 15.074 21.086 12.629 9.25-2.453 14.793-12.075 12.386-21.504l-24.768-98.624c-3.499-14.037-11.486-26.492-22.699-35.396-11.217-8.896-25.020-13.734-39.232-13.743h-566.077c-5.283-0.051-10.267 2.483-13.39 6.827-1.778 3.145-2.922 6.626-3.348 10.236l-31.802 519.735c-0.71 11.837 3.415 23.446 11.38 32.084 8.107 8.745 19.33 13.788 31.136 13.986h123.185c16.296-0.755 31.465-8.729 41.507-21.839v0.008l35.486-46.757h374.925c4.497 0 8.811-1.844 11.955-5.117 3.145-3.277 4.873-7.701 4.783-12.288v-68.254c0-9.421-7.497-17.062-16.738-17.062-9.246 0-16.738 7.642-16.738 17.062v51.191h-364.538c-5.103-0.034-9.93 2.368-13.054 6.481l-40.844 53.582c-3.968 5.347-10.162 8.501-16.738 8.532h-123.185c-2.511 0.076-4.931-0.914-6.695-2.735-1.741-1.806-2.593-4.304-2.346-6.825l24.106-420.105 66.951 243.994c1.958 7.42 8.533 12.587 16.065 12.629zM494.686 141.269c0 4.548 1.788 8.913 4.954 12.117 11.951 12.297 28.215 19.213 45.193 19.213s33.246-6.916 45.193-19.213c3.17-3.204 4.954-7.569 4.954-12.117s-1.783-8.913-4.954-12.113c-3.034-3.298-7.279-5.171-11.716-5.171s-8.683 1.873-11.716 5.171c-5.777 5.875-13.598 9.178-21.76 9.178-8.158 0-15.983-3.302-21.756-9.178-3.038-3.298-7.279-5.171-11.721-5.171-4.437 0-8.683 1.873-11.716 5.171-3.166 3.2-4.954 7.565-4.954 12.113zM410.941 260.194c-9.243 0-16.738-7.642-16.738-17.062 0-9.425 7.495-17.062 16.738-17.062h33.475c9.246 0 16.738 7.637 16.738 17.062 0 9.421-7.492 17.062-16.738 17.062h-33.475zM628.54 243.132c0 9.421 7.492 17.062 16.734 17.062h33.476c9.246 0 16.738-7.642 16.738-17.062 0-9.425-7.492-17.062-16.738-17.062h-33.476c-9.242 0-16.734 7.637-16.734 17.062zM671.714 741.023l-13.052 13.651c-3.17 3.207-4.954 7.564-4.954 12.119 0 4.548 1.783 8.905 4.954 12.112 3.034 3.299 7.279 5.172 11.716 5.172s8.683-1.873 11.716-5.172l13.389-13.65 13.389 13.65c3.034 3.299 7.279 5.172 11.716 5.172 4.442 0 8.687-1.873 11.721-5.172 3.166-3.207 4.954-7.564 4.954-12.112 0-4.555-1.788-8.912-4.954-12.119l-13.056-13.651 13.056-13.308c6.639-6.796 6.639-17.78 0-24.575-6.579-6.322-16.858-6.322-23.437 0l-13.389 13.651-13.389-13.651c-6.575-6.322-16.858-6.322-23.433 0-6.643 6.796-6.643 17.78 0 24.575l13.052 13.308z" />
<glyph unicode="&#xe92a;" glyph-name="equal" data-tags="equal" d="M938.667 287.031c0-13.888-5.393-27.209-14.997-37.026-9.6-9.822-22.622-15.339-36.203-15.339h-750.933c-13.579 0-26.602 5.517-36.204 15.339-9.602 9.818-14.996 23.138-14.996 37.026s5.394 27.204 14.996 37.026c9.602 9.818 22.625 15.334 36.204 15.334h750.933c13.581 0 26.603-5.517 36.203-15.334 9.604-9.822 14.997-23.138 14.997-37.026zM136.533 513.941h750.933c13.581 0 26.603 5.517 36.203 15.334 9.604 9.821 14.997 23.139 14.997 37.027s-5.393 27.206-14.997 37.027c-9.6 9.82-22.622 15.337-36.203 15.337h-750.933c-13.579 0-26.602-5.517-36.204-15.337s-14.996-23.139-14.996-37.027c0-13.888 5.394-27.207 14.996-37.027 9.602-9.818 22.625-15.334 36.204-15.334v0z" />
<glyph unicode="&#xe92b;" glyph-name="external-link" data-tags="external-link" d="M606.814 874.667c-26.185 0-47.407-21.225-47.407-47.407s21.222-47.407 47.407-47.407h169.993l-298.325-298.329c-18.517-18.513-18.517-48.529 0-67.042 18.513-18.517 48.529-18.517 67.042 0l298.33 298.325v-169.992c0-26.181 21.222-47.408 47.407-47.408 26.18 0 47.407 21.227 47.407 47.408v284.445c0 26.182-21.227 47.407-47.407 47.407h-284.446zM85.333 732.444c0 26.182 21.225 47.407 47.407 47.407h284.445c26.181 0 47.408-21.225 47.408-47.407s-21.227-47.407-47.408-47.407h-237.037v-568.89h568.891v237.039c0 26.18 21.222 47.407 47.407 47.407 26.18 0 47.407-21.227 47.407-47.407v-284.446c0-26.18-21.227-47.407-47.407-47.407h-663.705c-26.182 0-47.407 21.227-47.407 47.407v663.704z" />
<glyph unicode="&#xe92c;" glyph-name="eye-close" data-tags="eye-close" d="M937.421 316.732c6.366-11.025 8.090-24.128 4.796-36.425-3.298-12.297-11.341-22.78-22.366-29.146s-24.128-8.090-36.429-4.796c-12.297 3.294-22.78 11.341-29.146 22.366l-65.105 112.772c-36.706-22.886-76.181-40.994-117.47-53.879l20.762-117.726c1.165-6.234 1.084-12.642-0.243-18.846-1.323-6.208-3.866-12.087-7.479-17.306-3.61-5.214-8.222-9.664-13.564-13.086-5.342-3.426-11.311-5.756-17.562-6.857-6.246-1.101-12.655-0.956-18.846 0.435-6.191 1.387-12.045 3.989-17.225 7.659-5.18 3.665-9.579 8.32-12.945 13.7-3.371 5.376-5.636 11.371-6.673 17.63l-20.211 114.615c-43.776-5.158-88-5.141-131.772 0.038l-20.202-114.607c-2.266-12.484-9.384-23.565-19.796-30.814-10.412-7.253-23.273-10.086-35.768-7.881-12.496 2.202-23.611 9.263-30.915 19.639s-10.202 23.219-8.061 35.729l20.764 117.777c-41.231 12.902-80.648 31.014-117.296 53.888l-65.536-113.51c-6.365-11.025-16.849-19.072-29.146-22.366s-25.399-1.57-36.424 4.796c-11.025 6.366-19.070 16.849-22.365 29.146s-1.571 25.399 4.795 36.425l71.42 123.703c-24.078 21.705-46.396 45.282-66.744 70.515-7.876 9.916-11.515 22.541-10.126 35.126s7.696 24.112 17.545 32.069c9.849 7.957 22.444 11.7 35.040 10.415s24.175-7.497 32.213-17.28c62.904-77.861 174.1-170.669 346.667-170.669 172.561 0 283.759 92.809 346.667 170.665 3.938 4.962 8.823 9.094 14.37 12.158s11.644 5 17.946 5.696c6.298 0.695 12.672 0.137 18.752-1.644s11.75-4.747 16.678-8.729c4.932-3.983 9.024-8.901 12.041-14.473s4.902-11.686 5.547-17.99c0.644-6.304 0.034-12.675-1.796-18.737-1.83-6.067-4.843-11.712-8.866-16.61-20.39-25.289-42.761-48.913-66.901-70.656l70.976-122.931z" />
<glyph unicode="&#xe92d;" glyph-name="eye-open" data-tags="eye-open" d="M1003.861 467.499c-1.451 3.277-36.51 81.043-113.92 158.463-103.403 103.416-234.095 158.080-377.946 158.080-143.847 0-274.539-54.664-377.939-158.080-77.416-77.42-112.472-155.186-113.92-158.463-2.727-6.14-4.137-12.779-4.137-19.494s1.409-13.359 4.137-19.494c1.452-3.273 36.508-81.024 113.92-158.43 103.404-103.394 234.092-158.037 377.939-158.037 143.851 0 274.539 54.643 377.937 158.037 77.414 77.402 112.474 155.157 113.929 158.43 2.726 6.135 4.134 12.779 4.134 19.494s-1.408 13.355-4.134 19.494v0zM819.652 335.578c-85.79-84.629-189.303-127.539-307.657-127.539-118.351 0-221.863 42.91-307.655 127.539-33.737 33.378-62.764 71.202-86.28 112.427 23.514 41.237 52.541 79.078 86.28 112.469 85.804 84.648 189.308 127.564 307.655 127.564 118.349 0 221.862-42.92 307.652-127.564 33.737-33.391 62.767-71.228 86.281-112.461-23.514-41.225-52.54-79.053-86.276-112.435v0zM511.996 624.006c-34.807 0-68.838-10.322-97.779-29.661-28.943-19.34-51.502-46.827-64.823-78.987-13.321-32.158-16.806-67.546-10.015-101.687s23.553-65.502 48.167-90.116c24.614-24.614 55.974-41.374 90.116-48.166 34.138-6.793 69.525-3.307 101.687 10.014 32.158 13.321 59.648 35.883 78.985 64.823 19.341 28.945 29.662 62.972 29.662 97.779-0.051 46.665-18.611 91.399-51.605 124.394s-77.73 51.555-124.395 51.607v0zM511.996 368.004c-15.821 0-31.287 4.693-44.446 13.483-13.154 8.794-23.407 21.286-29.466 35.904-6.054 14.618-7.637 30.703-4.548 46.221 3.085 15.518 10.705 29.773 21.892 40.964 11.187 11.187 25.442 18.807 40.96 21.892 15.518 3.089 31.603 1.502 46.225-4.553 14.618-6.054 27.11-16.307 35.9-29.466 8.794-13.154 13.483-28.621 13.483-44.446-0.021-21.21-8.457-41.545-23.458-56.542-14.997-14.997-35.332-23.433-56.542-23.458v0z" />
<glyph unicode="&#xe92e;" glyph-name="facebook" data-tags="facebook" d="M611.038 64v378.897h132.681l19.725 148.35h-152.405v94.493c0 42.809 12.378 72.118 76.151 72.118h80.811v132.262c-39.317 4.059-78.839 6.019-118.383 5.871-117.278 0-197.798-68.975-197.798-195.597v-108.87h-131.819v-148.35h132.105v-379.174h158.933z" />
<glyph unicode="&#xe92f;" glyph-name="file" data-tags="file" d="M885.739 614.22l-236.151 234.248c-2.253 2.419-4.996 4.34-8.047 5.638s-6.345 1.942-9.664 1.891h-404.838c-15.658 0-30.675-6.17-41.747-17.152s-17.292-25.878-17.292-41.41v-736.209c0-15.531 6.22-30.426 17.292-41.408s26.089-17.152 41.747-17.152h607.252c15.659 0 30.677 6.17 41.749 17.152s17.289 25.877 17.289 41.408v535.425c0.051 3.293-0.597 6.56-1.907 9.587-1.306 3.027-3.243 5.747-5.683 7.982zM657.178 770.246l149.705-148.496h-149.705v148.496zM834.291 52.864h-607.252c-2.237 0-4.382 0.879-5.964 2.449s-2.47 3.695-2.47 5.914v736.209c0 2.219 0.889 4.347 2.47 5.916s3.727 2.45 5.964 2.45h379.532v-209.15c0-6.656 2.667-13.040 7.411-17.747s11.183-7.351 17.894-7.351h210.85v-510.327c0-2.219-0.887-4.343-2.47-5.914s-3.729-2.449-5.965-2.449zM666.453 329.775c2.398-2.266 4.309-4.988 5.615-8.009s1.975-6.272 1.975-9.557c0-3.285-0.67-6.537-1.975-9.557s-3.217-5.747-5.615-8.013l-118.076-117.124c-2.287-2.377-5.035-4.271-8.077-5.568-3.046-1.293-6.323-1.958-9.634-1.958-3.315 0-6.592 0.666-9.634 1.958-3.046 1.297-5.794 3.191-8.077 5.568l-118.079 117.124c-4.697 4.659-7.336 10.978-7.336 17.57 0 6.588 2.639 12.907 7.336 17.566s11.069 7.279 17.712 7.279c6.643 0 13.014-2.62 17.713-7.279l75.059-74.035v207.057c0 6.656 2.667 13.039 7.411 17.745 4.749 4.706 11.183 7.351 17.894 7.351 6.707 0 13.146-2.645 17.89-7.351s7.411-11.089 7.411-17.745v-207.057l75.063 74.035c2.283 2.381 5.030 4.275 8.077 5.568 3.042 1.297 6.323 1.963 9.634 1.963s6.592-0.666 9.634-1.963c3.046-1.293 5.794-3.187 8.077-5.568v0z" />
<glyph unicode="&#xe930;" glyph-name="filter" data-tags="filter" d="M448.009 11.767c-21.218 0.013-41.562 8.452-56.564 23.454-15.002 15.006-23.434 35.354-23.444 56.572v305.647l-258.856 284.744c-10.426 11.468-17.296 25.717-19.776 41.015s-0.462 30.989 5.807 45.163c6.27 14.174 16.521 26.222 29.51 34.679s28.153 12.959 43.651 12.959h687.33c15.497 0 30.66-4.502 43.648-12.958s23.241-20.503 29.508-34.676c6.272-14.173 8.29-29.863 5.811-45.161s-9.348-29.548-19.772-41.016l-258.863-284.748v-220.318c0.017-13.171-3.23-26.142-9.446-37.756-6.217-11.618-15.211-21.513-26.18-28.809l-128-85.325c-13.129-8.777-28.57-13.461-44.361-13.466h-0.004zM204.505 720l238.691-262.558c13.406-14.716 20.826-33.911 20.804-53.815v-281.933l96 63.996v217.937c-0.017 19.913 7.407 39.108 20.817 53.824l238.682 262.549h-614.993z" />
<glyph unicode="&#xe931;" glyph-name="folder" data-tags="folder" d="M859.652 684.936h-326.319l-102.716 119.694c-7.441 8.641-16.571 15.549-26.787 20.267s-21.284 7.14-32.473 7.103h-207.012c-20.923-0.108-40.96-8.75-55.756-24.049s-23.153-36.018-23.257-57.653v-607.049c0-21.018 8.075-41.173 22.448-56.038 14.373-14.861 33.868-23.211 54.194-23.211h701.235c19.981 0.107 39.113 8.363 53.239 22.972 14.131 14.609 22.114 34.394 22.217 55.053v461.209c-0.102 21.636-8.461 42.355-23.258 57.653-14.793 15.299-34.833 23.942-55.757 24.049v0zM180.148 733.957h184.099l42.272-49.021h-226.371v49.021zM843.853 162.044h-663.705v424.849h663.705v-424.849z" />
<glyph unicode="&#xe932;" glyph-name="gif" data-tags="gif" d="M346.074 353.186h47.407c13.432 0 24.699 4.548 33.8 13.653 9.071 9.071 13.606 20.322 13.606 33.754v47.407h-47.406v-47.407h-47.407v94.814h94.813c0 13.431-4.535 24.7-13.606 33.801-9.1 9.072-20.367 13.607-33.8 13.607h-47.407c-13.432 0-24.684-4.535-33.754-13.607-9.102-9.101-13.653-20.369-13.653-33.801v-94.814c0-13.431 4.551-24.683 13.653-33.754 9.071-9.105 20.322-13.653 33.754-13.653zM488.294 353.186h47.411v189.629h-47.411v-189.629zM583.113 353.186h47.407v71.108h71.108v47.411h-71.108v23.701h94.814v47.408h-142.221v-189.629zM180.148 21.333c-26.074 0-48.403 9.276-66.987 27.827-18.552 18.586-27.828 40.913-27.828 66.987v663.705c0 26.074 9.276 48.403 27.828 66.987 18.584 18.552 40.913 27.828 66.987 27.828h663.705c26.074 0 48.401-9.276 66.987-27.828 18.551-18.584 27.827-40.913 27.827-66.987v-663.705c0-26.074-9.276-48.401-27.827-66.987-18.586-18.551-40.913-27.827-66.987-27.827h-663.705zM180.148 116.147h663.705v663.705h-663.705v-663.705zM180.148 779.852v0z" />
<glyph unicode="&#xe933;" glyph-name="help" data-tags="help" d="M512 874.667c-84.386 0-166.878-25.024-237.043-71.906s-124.852-113.519-157.145-191.482c-32.294-77.962-40.743-163.752-24.28-246.517s57.099-158.788 116.77-218.462c59.67-59.669 135.695-100.305 218.46-116.766 82.765-16.465 168.555-8.017 246.515 24.277 77.965 32.294 144.602 86.98 191.484 157.146s71.906 152.657 71.906 237.043c-0.128 113.12-45.12 221.57-125.107 301.558s-188.442 124.981-301.559 125.108v0zM512 116.147c-65.634 0-129.794 19.465-184.367 55.927-54.573 36.467-97.107 88.294-122.224 148.932s-31.689 127.36-18.884 191.735c12.805 64.372 44.41 123.502 90.821 169.912s105.541 78.016 169.912 90.821c64.375 12.805 131.098 6.233 191.735-18.884s112.469-67.651 148.932-122.224c36.463-54.573 55.927-118.733 55.927-184.367-0.102-87.983-35.098-172.331-97.31-234.543s-146.56-97.207-234.543-97.31zM575.206 258.372c0-12.501-3.708-24.725-10.654-35.119s-16.815-18.496-28.369-23.283c-11.55-4.783-24.256-6.033-36.518-3.597-12.262 2.441-23.526 8.461-32.367 17.301-8.836 8.841-14.857 20.105-17.297 32.363-2.441 12.262-1.186 24.973 3.597 36.523s12.885 21.423 23.279 28.369c10.398 6.946 22.618 10.65 35.119 10.65 16.764 0 32.841-6.656 44.698-18.513 11.853-11.853 18.513-27.93 18.513-44.693zM670.025 526.993c-0.047-41.894-16.713-82.061-46.336-111.689-29.628-29.623-69.794-46.289-111.689-46.336-12.574 0-24.631 4.996-33.523 13.884-8.887 8.892-13.884 20.949-13.884 33.523s4.996 24.631 13.884 33.523c8.892 8.887 20.949 13.884 33.523 13.884 12.501 0 24.721 3.708 35.119 10.654 10.394 6.946 18.496 16.815 23.279 28.369 4.783 11.55 6.037 24.256 3.597 36.519-2.436 12.262-8.457 23.525-17.297 32.365s-20.105 14.86-32.367 17.299c-12.262 2.439-24.969 1.187-36.518-3.597s-21.423-12.886-28.369-23.281c-6.946-10.395-10.654-22.616-10.654-35.117 0-12.574-4.992-24.631-13.884-33.523s-20.95-13.884-33.523-13.884c-12.573 0-24.631 4.992-33.522 13.884s-13.885 20.949-13.885 33.523c0 41.91 16.649 82.105 46.284 111.74 29.637 29.635 69.829 46.284 111.74 46.284s82.103-16.649 111.74-46.284c29.636-29.635 46.285-69.83 46.285-111.74v0z" />
<glyph unicode="&#xe934;" glyph-name="home" data-tags="home" d="M832 48.004l-192.034 0.026c-21.21 0.026-41.54 8.465-56.538 23.462-14.993 14.997-23.428 35.328-23.454 56.538v176.004h-96v-176c-0.021-21.21-8.457-41.545-23.454-56.542-14.996-14.997-35.328-23.433-56.536-23.458l-191.972-0.034c-10.507 0-20.911 2.065-30.618 6.084-9.707 4.023-18.528 9.916-25.958 17.344s-13.324 16.247-17.345 25.954c-4.021 9.707-6.091 20.113-6.091 30.618v369.839c0.009 11.149 2.342 22.17 6.851 32.363s11.095 19.334 19.337 26.839l319.967 290.932c14.694 13.455 33.894 20.919 53.815 20.921s39.125-7.46 53.82-20.913l320.026-290.944c8.239-7.506 14.822-16.647 19.332-26.839s6.844-21.214 6.852-32.363v-369.835c0-21.218-8.427-41.566-23.433-56.567-15.002-15.006-35.349-23.433-56.567-23.433v0.004zM655.974 144.030l160.026-0.030v346.761l-304.026 276.399-303.974-276.391v-346.761l159.976 0.021v176.004c0.024 21.21 8.461 41.54 23.458 56.538 14.998 15.002 35.331 23.437 56.54 23.462h128c21.21-0.026 41.545-8.461 56.542-23.462 14.997-14.997 23.437-35.328 23.458-56.538v-176.004z" />
<glyph unicode="&#xe935;" glyph-name="info" data-tags="info" d="M512.004 880c-85.443 0-168.966-25.336-240.008-72.805s-126.413-114.938-159.11-193.876c-32.697-78.938-41.252-165.797-24.584-249.599 16.669-83.797 57.813-160.777 118.229-221.193s137.391-101.559 221.192-118.229c83.797-16.666 170.658-8.111 249.596 24.585 78.938 32.7 146.406 88.068 193.877 159.113 47.467 71.040 72.806 154.564 72.806 240.004-0.132 114.534-45.687 224.34-126.673 305.327-80.99 80.988-190.793 126.543-305.327 126.673v0zM512.004 112c-66.458 0-131.418 19.708-186.673 56.627s-98.321 89.395-123.752 150.793c-25.431 61.393-32.085 128.951-19.12 194.129s44.966 125.049 91.956 172.039 106.86 78.991 172.036 91.956c65.178 12.965 132.736 6.311 194.133-19.12s113.873-68.497 150.793-123.752c36.919-55.255 56.627-120.218 56.627-186.672-0.102-89.079-35.537-174.485-98.526-237.474-62.989-62.993-148.395-98.423-237.474-98.526zM592.004 256c0-12.732-5.060-24.939-14.059-33.941-9.003-9.003-21.214-14.059-33.941-14.059h-32c-12.732 0-24.943 5.056-33.941 14.059-9.003 9.003-14.059 21.21-14.059 33.941v162.731c-10.675 3.776-19.674 11.204-25.404 20.971-5.726 9.771-7.821 21.248-5.905 32.41 1.916 11.157 7.714 21.282 16.367 28.582 8.657 7.3 19.618 11.302 30.942 11.307h32c12.727 0 24.939-5.056 33.941-14.059 8.998-9.003 14.059-21.21 14.059-33.941v-162.726c9.357-3.315 17.459-9.446 23.194-17.553 5.73-8.107 8.806-17.792 8.806-27.721v0zM440 624c0 12.658 3.75 25.032 10.786 35.557 7.031 10.525 17.028 18.728 28.719 23.572 11.695 4.844 24.563 6.112 36.979 3.642s23.821-8.565 32.768-17.516c8.951-8.951 15.049-20.354 17.515-32.769 2.47-12.415 1.203-25.283-3.639-36.977s-13.047-21.69-23.573-28.722c-10.522-7.033-22.899-10.786-35.554-10.786-16.977 0-33.254 6.743-45.257 18.745s-18.743 28.281-18.743 45.255z" />
<glyph unicode="&#xe936;" glyph-name="instagram" data-tags="instagram" d="M613.12 480c0-26.33-7.808-52.066-22.434-73.958s-35.418-38.955-59.742-49.028c-24.324-10.074-51.093-12.71-76.915-7.573-25.822 5.133-49.542 17.813-68.159 36.429-18.617 18.62-31.296 42.338-36.432 68.16s-2.5 52.591 7.575 76.915c10.075 24.323 27.138 45.114 49.029 59.741s47.628 22.435 73.958 22.435c35.273-0.11 69.069-14.17 94.007-39.111 24.943-24.941 39.002-58.736 39.113-94.009v0zM896 663.040v-366.080c0-61.786-24.542-121.041-68.233-164.727-43.686-43.691-102.942-68.233-164.727-68.233h-366.080c-61.785 0-121.039 24.542-164.727 68.233-43.689 43.686-68.233 102.942-68.233 164.727v366.080c0 61.785 24.544 121.039 68.233 164.727s102.943 68.233 164.727 68.233h366.080c61.786 0 121.041-24.544 164.727-68.233 43.691-43.689 68.233-102.943 68.233-164.727v0zM679.68 480c0 39.492-11.712 78.099-33.651 110.936-21.943 32.837-53.129 58.431-89.613 73.544-36.489 15.113-76.638 19.067-115.371 11.363-38.735-7.704-74.315-26.722-102.24-54.648s-46.944-63.505-54.648-102.24c-7.705-38.733-3.75-78.882 11.363-115.371 15.113-36.484 40.707-67.669 73.544-89.613 32.837-21.939 71.444-33.651 110.936-33.651 52.958 0 103.748 21.039 141.197 58.483 37.444 37.449 58.483 88.239 58.483 141.197zM746.24 696.32c0 9.873-2.927 19.525-8.414 27.734-5.483 8.209-13.282 14.607-22.404 18.386s-19.157 4.767-28.843 2.841c-9.681-1.926-18.577-6.681-25.557-13.662s-11.738-15.877-13.662-25.56c-1.929-9.684-0.939-19.721 2.842-28.843 3.776-9.122 10.176-16.918 18.385-22.403s17.86-8.413 27.733-8.413c13.239 0 25.937 5.26 35.298 14.621s14.622 22.059 14.622 35.299z" />
<glyph unicode="&#xe937;" glyph-name="list-dots" data-tags="list-dots" d="M304 704c0 12.73 5.057 24.94 14.059 33.941s21.21 14.059 33.941 14.059h512c12.732 0 24.939-5.057 33.941-14.059s14.059-21.211 14.059-33.941c0-12.73-5.056-24.94-14.059-33.941s-21.21-14.059-33.941-14.059h-512c-12.73 0-24.94 5.057-33.941 14.059s-14.059 21.211-14.059 33.941zM864 496h-512c-12.73 0-24.94-5.056-33.941-14.059s-14.059-21.21-14.059-33.941c0-12.732 5.057-24.939 14.059-33.941s21.21-14.059 33.941-14.059h512c12.732 0 24.939 5.056 33.941 14.059s14.059 21.21 14.059 33.941c0 12.732-5.056 24.939-14.059 33.941s-21.21 14.059-33.941 14.059zM864 240h-512c-12.73 0-24.94-5.056-33.941-14.059s-14.059-21.21-14.059-33.941c0-12.732 5.057-24.939 14.059-33.941s21.21-14.059 33.941-14.059h512c12.732 0 24.939 5.056 33.941 14.059s14.059 21.21 14.059 33.941c0 12.732-5.056 24.939-14.059 33.941s-21.21 14.059-33.941 14.059zM176 512c-12.658 0-25.032-3.755-35.556-10.786s-18.728-17.028-23.572-28.723c-4.844-11.695-6.112-24.563-3.642-36.975 2.47-12.416 8.565-23.821 17.516-32.772 8.951-8.947 20.354-15.044 32.769-17.515s25.283-1.203 36.977 3.644c11.695 4.843 21.69 13.047 28.722 23.569 7.032 10.526 10.786 22.899 10.786 35.558 0 16.973-6.743 33.254-18.745 45.257s-28.281 18.743-45.255 18.743zM176 768c-12.658 0-25.032-3.753-35.556-10.786s-18.728-17.028-23.572-28.722c-4.844-11.695-6.112-24.563-3.642-36.978s8.565-23.818 17.516-32.769c8.951-8.951 20.354-15.046 32.769-17.516s25.283-1.202 36.977 3.642c11.695 4.844 21.69 13.047 28.722 23.572s10.786 22.899 10.786 35.557c0 16.974-6.743 33.253-18.745 45.255s-28.281 18.745-45.255 18.745v0zM176 256c-12.658 0-25.032-3.755-35.556-10.786s-18.728-17.028-23.572-28.723c-4.844-11.695-6.112-24.563-3.642-36.975 2.47-12.416 8.565-23.821 17.516-32.772 8.951-8.947 20.354-15.044 32.769-17.515s25.283-1.203 36.977 3.644c11.695 4.843 21.69 13.047 28.722 23.569 7.032 10.526 10.786 22.899 10.786 35.558 0 16.973-6.743 33.254-18.745 45.257s-28.281 18.743-45.255 18.743z" />
<glyph unicode="&#xe938;" glyph-name="Loading" data-tags="Loading" d="M560 832v-128c0-12.73-5.056-24.94-14.059-33.941s-21.21-14.059-33.941-14.059c-12.732 0-24.939 5.057-33.941 14.059s-14.059 21.211-14.059 33.941v128c0 12.73 5.056 24.94 14.059 33.941s21.21 14.059 33.941 14.059c12.732 0 24.939-5.057 33.941-14.059s14.059-21.211 14.059-33.941v0zM896 496h-128c-12.732 0-24.939-5.056-33.941-14.059s-14.059-21.21-14.059-33.941c0-12.732 5.056-24.939 14.059-33.941s21.21-14.059 33.941-14.059h128c12.732 0 24.939 5.056 33.941 14.059s14.059 21.21 14.059 33.941c0 12.732-5.056 24.939-14.059 33.941s-21.21 14.059-33.941 14.059v0zM726.801 300.8c-9.203 7.659-20.937 11.605-32.896 11.059-11.964-0.546-23.287-5.542-31.753-14.012-8.469-8.465-13.466-19.789-14.012-31.753-0.546-11.959 3.401-23.693 11.059-32.896l90.398-90.799c4.471-4.454 9.775-7.983 15.607-10.385 5.837-2.402 12.087-3.631 18.394-3.614 12.727 0.055 24.926 5.077 34.001 13.999 4.476 4.459 8.026 9.758 10.449 15.595 2.423 5.833 3.669 12.087 3.669 18.406 0 6.315-1.246 12.574-3.669 18.406s-5.973 11.132-10.449 15.595l-90.799 90.398zM512 240c-12.732 0-24.939-5.056-33.941-14.059s-14.059-21.21-14.059-33.941v-128c0-12.732 5.056-24.939 14.059-33.941s21.21-14.059 33.941-14.059c12.732 0 24.939 5.056 33.941 14.059s14.059 21.21 14.059 33.941v128c0 12.732-5.056 24.939-14.059 33.941s-21.21 14.059-33.941 14.059zM297.2 300.8l-90.8-90.398c-4.475-4.463-8.026-9.762-10.448-15.595s-3.67-12.092-3.67-18.406c0-6.319 1.247-12.574 3.67-18.406 2.423-5.837 5.973-11.136 10.448-15.595 9.074-8.922 21.275-13.943 34-13.999 6.31-0.017 12.56 1.212 18.394 3.614s11.137 5.931 15.606 10.385l90.4 90.799c7.66 9.203 11.604 20.937 11.058 32.896-0.546 11.964-5.543 23.287-14.009 31.753-8.466 8.469-19.791 13.466-31.753 14.012s-23.694-3.401-32.896-11.059v0zM304 448c0 12.732-5.057 24.939-14.059 33.941s-21.211 14.059-33.941 14.059h-128c-12.73 0-24.94-5.056-33.941-14.059s-14.059-21.21-14.059-33.941c0-12.732 5.057-24.939 14.059-33.941s21.211-14.059 33.941-14.059h128c12.73 0 24.94 5.056 33.941 14.059s14.059 21.21 14.059 33.941zM274.4 753.6c-4.465 4.465-9.766 8.007-15.599 10.423s-12.086 3.66-18.401 3.66c-6.314 0-12.567-1.244-18.4-3.66s-11.134-5.958-15.599-10.423c-4.465-4.465-8.007-9.766-10.423-15.599s-3.66-12.086-3.66-18.4c0-6.315 1.244-12.567 3.66-18.401s5.958-11.134 10.423-15.599l90.8-90.4c8.99-8.916 21.138-13.918 33.8-13.918s24.81 5.003 33.8 13.918c4.463 4.425 8.005 9.69 10.422 15.491s3.662 12.024 3.662 18.309c0 6.285-1.244 12.507-3.662 18.308s-5.96 11.066-10.422 15.491l-90.4 90.8z" />
<glyph unicode="&#xe939;" glyph-name="location" data-tags="location" d="M512 720c-34.807 0-68.838-10.322-97.78-29.661s-51.501-46.826-64.822-78.986c-13.321-32.16-16.806-67.548-10.016-101.686 6.791-34.142 23.553-65.502 48.167-90.116s55.975-41.378 90.117-48.166c34.138-6.793 69.525-3.307 101.687 10.014 32.158 13.321 59.648 35.878 78.985 64.823 19.341 28.941 29.662 62.972 29.662 97.779-0.051 46.662-18.611 91.398-51.61 124.393-32.994 32.995-77.73 51.555-124.39 51.607v0zM512 464c-15.821 0-31.292 4.693-44.446 13.483s-23.411 21.286-29.466 35.904c-6.054 14.618-7.637 30.702-4.553 46.221 3.089 15.518 10.709 29.773 21.897 40.961s25.442 18.807 40.96 21.894c15.518 3.087 31.603 1.503 46.221-4.553s27.115-16.308 35.904-29.465c8.789-13.156 13.483-28.623 13.483-44.445-0.021-21.21-8.461-41.545-23.458-56.542s-35.332-23.437-56.542-23.458v0zM512 912c-97.566-0.11-191.104-38.917-260.094-107.906s-107.796-162.528-107.906-260.094c0-309.431 326.566-541.594 340.471-551.326 8.068-5.645 17.681-8.674 27.529-8.674s19.46 3.029 27.529 8.674c61.828 45.534 118.409 97.796 168.691 155.831 112.38 129.233 171.78 265.993 171.78 395.494-0.111 97.566-38.916 191.104-107.908 260.094-68.988 68.989-162.526 107.796-260.092 107.906v0zM637.21 213.146c-38.14-43.802-80.034-84.186-125.21-120.691-45.175 36.506-87.070 76.885-125.208 120.691-66.968 77.389-146.792 197.615-146.792 330.854 0 72.139 28.657 141.323 79.667 192.333s120.192 79.667 192.333 79.667c72.141 0 141.325-28.657 192.333-79.667 51.012-51.010 79.667-120.194 79.667-192.333 0-133.239-79.825-253.466-146.79-330.854z" />
<glyph unicode="&#xe93a;" glyph-name="location-fill" data-tags="location-fill" d="M512 874.667c-90.496-0.101-177.256-35.453-241.246-98.301s-99.985-148.059-100.087-236.94c0-286.86 310.302-503.508 323.529-512.575 5.218-3.593 11.435-5.517 17.805-5.517s12.587 1.924 17.805 5.517c13.227 9.067 323.529 225.715 323.529 512.575-0.102 88.881-36.096 174.092-100.087 236.94s-150.75 98.201-241.246 98.301zM512 661.331c24.55 0 48.546-7.15 68.958-20.545s36.322-32.434 45.717-54.71c9.391-22.275 11.849-46.787 7.061-70.433-4.791-23.65-16.61-45.372-33.971-62.417-17.357-17.050-39.475-28.659-63.552-33.365-24.077-4.702-49.033-2.291-71.714 6.938-22.677 9.225-42.064 24.853-55.702 44.898-13.639 20.049-20.918 43.618-20.918 67.728 0 32.332 13.077 63.339 36.354 86.2s54.85 35.706 87.767 35.706z" />
<glyph unicode="&#xe93b;" glyph-name="lock" data-tags="lock" d="M832 656h-128v96c0 50.921-20.228 99.758-56.235 135.764s-84.843 56.236-135.765 56.236c-50.923 0-99.758-20.229-135.764-56.236s-56.236-84.843-56.236-135.764v-96h-128c-21.185-0.105-41.472-8.567-56.452-23.548s-23.443-35.267-23.548-56.452v-448c0.105-21.184 8.567-41.472 23.548-56.452s35.267-23.441 56.452-23.548h640c21.184 0.107 41.472 8.567 56.452 23.548s23.441 35.268 23.548 56.452v448c-0.107 21.185-8.567 41.472-23.548 56.452s-35.268 23.443-56.452 23.548v0zM416 752c0 25.461 10.114 49.879 28.117 67.882 18.005 18.004 42.423 28.118 67.883 28.118s49.877-10.114 67.883-28.118c18.001-18.004 28.117-42.421 28.117-67.882v-96h-192v96zM816 144h-608v416h608v-416zM576 352c0-12.659-3.755-25.033-10.786-35.558-7.031-10.522-17.028-18.726-28.723-23.569-11.695-4.847-24.563-6.114-36.975-3.644-12.416 2.47-23.821 8.567-32.772 17.515-8.947 8.951-15.044 20.356-17.515 32.772-2.47 12.412-1.203 25.28 3.644 36.975 4.843 11.695 13.047 21.692 23.569 28.723 10.526 7.031 22.899 10.786 35.558 10.786 16.973 0 33.254-6.741 45.257-18.743s18.743-28.284 18.743-45.257z" />
<glyph unicode="&#xe93c;" glyph-name="logout" data-tags="logout" d="M923.733 411.733l-179.2-179.2c-4.766-4.749-10.423-8.516-16.649-11.076-6.221-2.564-12.89-3.874-19.618-3.857-13.572 0.060-26.586 5.419-36.267 14.933-4.774 4.757-8.559 10.411-11.145 16.631-2.586 6.225-3.913 12.898-3.913 19.635s1.327 13.41 3.913 19.635c2.586 6.221 6.37 11.874 11.145 16.631l91.733 91.733h-354.133c-13.579 0-26.602 5.393-36.204 14.997-9.602 9.6-14.996 22.622-14.996 36.203s5.394 26.603 14.996 36.203c9.602 9.604 22.625 14.997 36.204 14.997h354.133l-91.733 91.733c-9.617 9.618-15.023 22.664-15.023 36.267s5.406 26.648 15.023 36.267c9.617 9.618 22.665 15.022 36.267 15.022s26.65-5.404 36.267-15.022l179.2-179.2c4.774-4.757 8.559-10.411 11.145-16.631 2.586-6.225 3.913-12.898 3.913-19.635s-1.327-13.41-3.913-19.635c-2.586-6.221-6.37-11.874-11.145-16.631v0zM409.6 123.733h-221.867v648.533h221.867c13.579 0 26.603 5.394 36.203 14.996 9.604 9.602 14.997 22.625 14.997 36.204s-5.393 26.602-14.997 36.204c-9.6 9.602-22.624 14.996-36.203 14.996h-238.933c-22.597-0.112-44.237-9.139-60.216-25.117s-25.005-37.619-25.117-60.216v-682.667c0.112-22.596 9.139-44.237 25.117-60.215s37.619-25.007 60.216-25.118h238.933c13.579 0 26.603 5.393 36.203 14.997 9.604 9.6 14.997 22.622 14.997 36.203s-5.393 26.603-14.997 36.203c-9.6 9.604-22.624 14.997-36.203 14.997z" />
<glyph unicode="&#xe93d;" glyph-name="mail" data-tags="mail" d="M943.94 737.172c-0.021 0.869-0.064 1.736-0.132 2.6-0.055 0.741-0.128 1.477-0.222 2.208-0.196 1.574-0.474 3.139-0.819 4.688-0.35 1.527-0.772 3.036-1.263 4.524-0.243 0.74-0.521 1.468-0.802 2.2-0.555 1.46-1.195 2.888-1.911 4.276-0.354 0.696-0.717 1.388-1.101 2.064-0.388 0.672-0.789 1.335-1.212 1.988-1.289 2.044-2.743 3.983-4.339 5.8-0.265 0.304-0.486 0.62-0.759 0.916-0.222 0.248-0.478 0.46-0.713 0.704-0.585 0.608-1.186 1.2-1.801 1.776-0.563 0.532-1.126 1.056-1.711 1.556-0.58 0.49-1.173 0.966-1.775 1.428-0.649 0.511-1.31 1.004-1.984 1.48-0.589 0.412-1.195 0.792-1.801 1.176-0.704 0.455-1.421 0.891-2.15 1.308-0.64 0.36-1.301 0.68-1.958 1.012-0.721 0.36-1.438 0.724-2.176 1.048-0.717 0.316-1.451 0.592-2.189 0.876-0.704 0.268-1.408 0.54-2.116 0.776-0.781 0.256-1.574 0.468-2.364 0.684-0.717 0.196-1.421 0.392-2.142 0.552-0.789 0.169-1.583 0.318-2.381 0.448-0.764 0.137-1.536 0.256-2.308 0.356-0.751 0.086-1.506 0.154-2.257 0.204-0.853 0.067-1.711 0.111-2.564 0.132-0.333 0.004-0.657 0.048-0.99 0.048h-768c-0.336 0-0.656-0.040-0.988-0.048-0.86-0.020-1.716-0.068-2.572-0.132-0.751-0.051-1.5-0.119-2.248-0.204-0.78-0.096-1.552-0.224-2.328-0.36-0.788-0.132-1.58-0.268-2.36-0.44-0.724-0.164-1.444-0.36-2.168-0.56-0.78-0.216-1.56-0.424-2.324-0.676-0.732-0.24-1.448-0.52-2.168-0.792-0.72-0.28-1.44-0.548-2.144-0.856-0.748-0.332-1.48-0.7-2.216-1.068-0.644-0.324-1.292-0.64-1.92-0.992-0.736-0.416-1.456-0.868-2.176-1.328-0.6-0.376-1.2-0.752-1.78-1.16-0.68-0.468-1.336-0.976-1.996-1.488-0.6-0.464-1.192-0.928-1.764-1.42-0.586-0.506-1.159-1.026-1.72-1.56-0.612-0.58-1.216-1.168-1.796-1.776-0.232-0.24-0.488-0.456-0.716-0.704-0.268-0.296-0.492-0.612-0.756-0.912-1.056-1.21-2.052-2.472-2.984-3.78-0.472-0.664-0.92-1.34-1.36-2.024-0.416-0.656-0.82-1.316-1.204-1.988-0.388-0.676-0.748-1.368-1.1-2.064-0.36-0.704-0.704-1.408-1.024-2.12-0.314-0.711-0.611-1.43-0.888-2.156-0.284-0.728-0.56-1.46-0.808-2.2-0.244-0.74-0.464-1.488-0.676-2.24-0.212-0.76-0.412-1.52-0.584-2.28-0.347-1.55-0.621-3.116-0.82-4.692-0.091-0.731-0.164-1.466-0.22-2.204-0.069-0.867-0.113-1.734-0.132-2.6-0.008-0.4-0.060-0.78-0.060-1.176v-544c0.024-21.21 8.461-41.545 23.459-56.542s35.331-23.433 56.541-23.458h704c21.21 0.026 41.545 8.461 56.542 23.458s23.433 35.332 23.458 56.542v544c0 0.4-0.051 0.78-0.060 1.172zM772.604 688l-260.604-238.882-260.6 238.882h521.204zM176 208v418.888l303.569-278.272c8.849-8.115 20.425-12.617 32.431-12.617s23.582 4.501 32.431 12.617l303.569 278.272v-418.888h-672z" />
<glyph unicode="&#xe93e;" glyph-name="menu" data-tags="menu" d="M912 448c0-12.732-5.056-24.939-14.059-33.941s-21.21-14.059-33.941-14.059h-704c-12.73 0-24.94 5.056-33.941 14.059s-14.059 21.21-14.059 33.941c0 12.732 5.057 24.939 14.059 33.941s21.211 14.059 33.941 14.059h704c12.732 0 24.939-5.056 33.941-14.059s14.059-21.21 14.059-33.941zM160 656h704c12.732 0 24.939 5.057 33.941 14.059s14.059 21.211 14.059 33.941c0 12.73-5.056 24.94-14.059 33.941s-21.21 14.059-33.941 14.059h-704c-12.73 0-24.94-5.057-33.941-14.059s-14.059-21.211-14.059-33.941c0-12.73 5.057-24.94 14.059-33.941s21.211-14.059 33.941-14.059v0zM864 240h-704c-12.73 0-24.94-5.056-33.941-14.059s-14.059-21.21-14.059-33.941c0-12.732 5.057-24.939 14.059-33.941s21.211-14.059 33.941-14.059h704c12.732 0 24.939 5.056 33.941 14.059s14.059 21.21 14.059 33.941c0 12.732-5.056 24.939-14.059 33.941s-21.21 14.059-33.941 14.059z" />
<glyph unicode="&#xe93f;" glyph-name="minus" data-tags="minus" d="M864 400h-704c-12.73 0-24.94 5.056-33.941 14.059s-14.059 21.21-14.059 33.941c0 12.732 5.057 24.939 14.059 33.941s21.211 14.059 33.941 14.059h704c12.732 0 24.939-5.056 33.941-14.059s14.059-21.21 14.059-33.941c0-12.732-5.056-24.939-14.059-33.941s-21.21-14.059-33.941-14.059z" />
<glyph unicode="&#xe940;" glyph-name="mission" data-tags="mission" d="M892.557 589.406c11.106 3.474 22.946-2.62 26.577-13.684l-0.026-0.010c28.57-91.092 25.771-189.132-7.949-278.437-33.724-89.31-96.427-164.727-178.074-214.191-81.634-49.468-177.519-70.123-272.294-58.667-94.782 11.46-182.972 54.37-250.479 121.869-67.507 67.494-110.423 155.686-121.886 250.462-11.47 94.784 9.184 190.662 58.644 272.316 49.467 81.647 124.884 144.355 214.191 178.080 89.307 33.733 187.351 36.538 278.44 7.967 5.487-1.602 10.095-5.34 12.791-10.373 2.701-5.033 3.255-10.943 1.553-16.396-1.711-5.453-5.538-9.989-10.628-12.587-5.090-2.592-11.008-3.033-16.427-1.218-82.022 25.744-170.304 23.231-250.734-7.127-80.418-30.359-148.339-86.808-192.885-160.332-44.553-73.515-63.157-159.851-52.841-245.193s48.953-164.762 109.74-225.549c60.787-60.791 140.205-99.439 225.546-109.76 85.35-10.317 171.686 8.277 245.214 52.817 73.523 44.553 129.98 112.465 160.346 192.887 30.362 80.435 32.875 168.717 7.138 250.734-3.324 11.155 2.927 22.917 14.042 26.391zM534.694 598.283c0-11.747-9.527-21.266-21.265-21.266-33.839 0-66.291-13.442-90.213-37.37-23.929-23.922-37.37-56.374-37.37-90.213 0-33.835 13.442-66.287 37.37-90.21 23.922-23.927 56.374-37.367 90.213-37.367 33.835 0 66.287 13.44 90.21 37.367 23.927 23.923 37.372 56.375 37.372 90.21 0 11.742 9.519 21.269 21.265 21.269 11.738 0 21.257-9.527 21.257-21.269 0-45.116-17.92-88.38-49.822-120.282s-75.166-49.822-120.282-49.822c-45.12 0-88.383 17.92-120.286 49.822s-49.823 75.166-49.823 120.282c0 45.12 17.92 88.383 49.823 120.286s75.166 49.822 120.286 49.822c11.738 0 21.265-9.519 21.265-21.259zM553.924 722.914c0.098 12.103-9.199 22.214-21.265 23.131-6.357 0.555-12.71 1.075-19.23 1.075-78.955 0-154.672-31.361-210.493-87.193-55.831-55.824-87.193-131.538-87.193-210.493 0-78.95 31.362-154.671 87.193-210.492 55.824-55.829 131.538-87.194 210.493-87.194 78.95 0 154.671 31.364 210.492 87.194 55.829 55.825 87.194 131.541 87.194 210.492 0 7.689-0.474 15.381-1.412 23.010-0.533 5.973-3.554 11.456-8.324 15.104-4.762 3.652-10.842 5.124-16.751 4.079-5.914-1.050-11.115-4.531-14.332-9.591-3.226-5.060-4.177-11.247-2.62-17.045l0.009-0.081c0.452-5.129 0.905-10.227 0.905-15.475 0-67.669-26.884-132.57-74.735-180.429-47.859-47.851-112.759-74.735-180.429-74.735-67.674 0-132.573 26.884-180.431 74.735-47.851 47.859-74.734 112.759-74.734 180.429 0 67.674 26.883 132.573 74.734 180.431 47.857 47.851 112.757 74.734 180.431 74.734 4.813 0 9.489-0.397 14.187-0.797l1.348-0.114 3.985-0.356c5.389-0.235 10.65 1.709 14.596 5.39 3.942 3.688 6.242 8.8 6.379 14.196l0.004-0.003zM641.007 607.079v76.25c0 5.638 2.244 11.049 6.229 15.036l127.582 127.582c6.080 6.080 15.232 7.903 23.177 4.606 7.945-3.289 13.12-11.042 13.12-19.642v-63.791h63.791c8.602 0 16.354-5.176 19.644-13.121 3.294-7.946 1.472-17.094-4.608-23.174l-127.582-127.582c-3.985-3.987-9.395-6.229-15.036-6.229h-76.25l-142.613-142.62c-3.972-4.070-9.404-6.379-15.091-6.413-5.683-0.034-11.149 2.206-15.172 6.221-4.015 4.023-6.259 9.493-6.221 15.172 0.034 5.687 2.342 11.123 6.413 15.095l142.618 142.61zM768.589 759.579l-85.056-85.057v-54.984h54.993l85.056 85.057h-33.728c-5.645 0-11.055 2.236-15.040 6.223-3.989 3.987-6.225 9.398-6.225 15.044v33.718z" />
<glyph unicode="&#xe941;" glyph-name="morehorizontal" data-tags="more horizontal" d="M320 448c0-12.659-3.753-25.033-10.786-35.558-7.033-10.522-17.028-18.726-28.722-23.569-11.695-4.847-24.563-6.114-36.977-3.644s-23.819 8.567-32.769 17.515c-8.951 8.951-15.046 20.356-17.516 32.772-2.47 12.412-1.202 25.28 3.642 36.975s13.047 21.692 23.572 28.723c10.525 7.031 22.898 10.786 35.556 10.786 16.968-0.017 33.236-6.767 45.234-18.765s18.747-28.267 18.766-45.235v0zM768 512c-12.659 0-25.033-3.755-35.558-10.786-10.522-7.031-18.726-17.028-23.569-28.723s-6.114-24.563-3.644-36.975c2.47-12.416 8.567-23.821 17.515-32.772 8.951-8.947 20.356-15.044 32.772-17.515 12.412-2.47 25.28-1.203 36.975 3.644 11.695 4.843 21.692 13.047 28.723 23.569 7.031 10.526 10.786 22.899 10.786 35.558-0.017 16.969-6.767 33.237-18.765 45.235s-28.267 18.748-45.235 18.765zM512 512c-12.659 0-25.033-3.755-35.558-10.786-10.522-7.031-18.726-17.028-23.569-28.723-4.847-11.695-6.114-24.563-3.644-36.975 2.47-12.416 8.567-23.821 17.515-32.772 8.951-8.947 20.356-15.044 32.772-17.515 12.412-2.47 25.28-1.203 36.975 3.644 11.695 4.843 21.692 13.047 28.723 23.569 7.031 10.526 10.786 22.899 10.786 35.558-0.017 16.969-6.767 33.237-18.765 45.235s-28.267 18.748-45.235 18.765z" />
<glyph unicode="&#xe942;" glyph-name="morevertical" data-tags="more vertical" d="M576 192c0-12.659-3.755-25.033-10.786-35.558-7.031-10.522-17.028-18.726-28.723-23.569-11.695-4.847-24.563-6.114-36.975-3.644-12.416 2.47-23.821 8.567-32.772 17.515-8.947 8.951-15.044 20.356-17.515 32.772-2.47 12.412-1.203 25.28 3.644 36.975 4.843 11.695 13.047 21.692 23.569 28.723 10.526 7.031 22.899 10.786 35.558 10.786 16.969-0.017 33.237-6.767 45.235-18.765s18.748-28.267 18.765-45.235v0zM512 640c12.659 0 25.033 3.753 35.558 10.786 10.522 7.033 18.726 17.028 23.569 28.722 4.847 11.695 6.114 24.563 3.644 36.977s-8.567 23.819-17.515 32.769c-8.951 8.951-20.356 15.046-32.772 17.516-12.412 2.47-25.28 1.202-36.975-3.642s-21.692-13.047-28.723-23.572c-7.031-10.525-10.786-22.898-10.786-35.556 0.017-16.968 6.767-33.236 18.765-45.234s28.267-18.747 45.235-18.766v0zM512 512c-12.659 0-25.033-3.755-35.558-10.786-10.522-7.031-18.726-17.028-23.569-28.723-4.847-11.695-6.114-24.563-3.644-36.975 2.47-12.416 8.567-23.821 17.515-32.772 8.951-8.947 20.356-15.044 32.772-17.515 12.412-2.47 25.28-1.203 36.975 3.644 11.695 4.843 21.692 13.047 28.723 23.569 7.031 10.526 10.786 22.899 10.786 35.558-0.017 16.969-6.767 33.237-18.765 45.235s-28.267 18.748-45.235 18.765z" />
<glyph unicode="&#xe943;" glyph-name="notice" data-tags="notice" d="M714.667 789.333c24.324 0.003 47.744-9.229 65.527-25.829 17.779-16.6 28.595-39.332 30.259-63.6l0.213-6.571v-480c-0.009-5.329 1.975-10.475 5.568-14.413s8.529-6.391 13.837-6.874c5.312-0.482 10.607 1.041 14.848 4.271 4.245 3.23 7.121 7.932 8.073 13.175l0.341 3.84v447.403c22.268-2.49 42.965-12.692 58.505-28.838s24.939-37.219 26.573-59.568l0.256-6.997v-320c0.004-35.418-13.551-69.495-37.875-95.241s-57.579-41.207-92.941-43.213l-7.851-0.213h-576c-35.419-0.004-69.497 13.551-95.242 37.875s-41.206 57.579-43.212 92.941l-0.213 7.851v448c-0.003 24.326 9.229 47.745 25.829 65.525s39.332 28.596 63.6 30.261l6.571 0.213h533.333zM394.581 490.667h-149.333c-8.487 0-16.626-3.371-22.627-9.374-6.001-5.999-9.373-14.14-9.373-22.626v-149.333c0-17.664 14.336-32 32-32h149.333c8.487 0 16.626 3.371 22.627 9.374 6.001 5.999 9.373 14.14 9.373 22.626v149.333c0 8.486-3.372 16.627-9.373 22.626-6.001 6.003-14.141 9.374-22.627 9.374zM650.752 341.333h-106.581l-4.352-0.299c-8.030-1.105-15.343-5.218-20.463-11.507-5.116-6.289-7.654-14.285-7.1-22.374 0.55-8.090 4.156-15.667 10.078-21.201 5.926-5.538 13.73-8.614 21.837-8.619h106.581l4.352 0.299c8.034 1.105 15.347 5.218 20.463 11.507s7.654 14.285 7.1 22.374c-0.55 8.090-4.156 15.667-10.078 21.201-5.926 5.538-13.73 8.614-21.837 8.619zM362.581 426.667v-85.333h-85.333v85.333h85.333zM650.667 490.667l-106.581-0.213-4.352-0.256c-8.111-1.028-15.518-5.116-20.71-11.435-5.188-6.315-7.761-14.379-7.194-22.532 0.567-8.158 4.233-15.787 10.249-21.321 6.012-5.538 13.918-8.563 22.093-8.457l106.624 0.213 4.309 0.299c8.034 1.105 15.351 5.222 20.467 11.516s7.654 14.298 7.095 22.387c-0.559 8.094-4.169 15.671-10.103 21.201-5.931 5.534-13.743 8.606-21.854 8.597h-0.043zM650.709 639.829l-409.813-0.299c-8.032-1.105-15.345-5.218-20.462-11.507s-7.655-14.287-7.102-22.375c0.553-8.089 4.155-15.666 10.080-21.201s13.729-8.615 21.836-8.617l409.856 0.256c8.102 1.027 15.501 5.113 20.689 11.42s7.765 14.358 7.211 22.505c-0.559 8.147-4.207 15.773-10.202 21.317s-13.926 8.585-22.093 8.502z" />
<glyph unicode="&#xe944;" glyph-name="notification" data-tags="notification" d="M897.092 264.282c-22.75 39.159-49.869 113.924-49.869 247.718v28.384c0 185.896-149.239 338.244-332.668 339.608l-2.56 0.008c-89.005-0.111-174.319-35.573-237.177-98.585s-98.111-148.412-98.005-237.415v-32c0-133.786-27.136-208.542-49.9-247.706-7.064-12.186-10.801-26.014-10.836-40.102-0.035-14.084 3.633-27.934 10.636-40.158 6.935-12.224 17.006-22.379 29.173-29.419 12.167-7.036 25.991-10.705 40.047-10.62h140.828c3.989-43.721 24.177-84.369 56.599-113.967 32.423-29.602 74.739-46.012 118.639-46.012 43.904 0 86.221 16.41 118.643 46.012 32.422 29.598 52.608 70.246 56.597 113.967h140.83c14.054-0.081 27.874 3.584 40.043 10.62 12.164 7.040 22.234 17.19 29.167 29.414 7.006 12.22 10.675 26.065 10.641 40.149s-3.767 27.913-10.829 40.102v0zM512 80c-18.432 0.026-36.292 6.404-50.573 18.061s-24.102 27.883-27.814 45.939h156.779c-3.712-18.057-13.534-34.283-27.814-45.939s-32.141-18.035-50.577-18.061v0zM222.538 240c41.172 86.195 50.28 193.788 50.28 272v32c-0.106 63.545 25.035 124.53 69.893 169.539s105.759 70.354 169.302 70.461l1.83-0.008c130.893-0.968 237.38-110.256 237.38-243.608v-28.384c0-78.212 9.097-185.801 50.249-272h-578.934z" />
<glyph unicode="&#xe945;" glyph-name="pdf" data-tags="pdf" d="M138.667 768c0 58.833 47.833 106.667 106.667 106.667h266.667v-213.333c0-29.5 23.834-53.333 53.333-53.333h213.333v-240h-373.333c-58.833 0-106.667-47.834-106.667-106.667v-240h-53.333c-58.833 0-106.667 47.834-106.667 106.667v640zM778.667 661.333h-213.333v213.333l213.333-213.333zM405.333 288h40c51.499 0 93.333-41.835 93.333-93.333s-41.835-93.333-93.333-93.333h-13.333v-53.333c0-14.669-12-26.667-26.667-26.667s-26.667 11.998-26.667 26.667v213.333c0 14.669 12 26.667 26.667 26.667zM445.333 154.667c22.165 0 40 17.835 40 40s-17.835 40-40 40h-13.333v-80h13.333zM592 288h40c44.169 0 80-35.831 80-80v-106.667c0-44.169-35.831-80-80-80h-40c-14.669 0-26.667 11.998-26.667 26.667v213.333c0 14.669 11.998 26.667 26.667 26.667zM632 74.667c14.669 0 26.667 11.998 26.667 26.667v106.667c0 14.669-11.998 26.667-26.667 26.667h-13.333v-160h13.333zM752 261.333c0 14.669 11.998 26.667 26.667 26.667h80c14.669 0 26.667-11.998 26.667-26.667s-11.998-26.667-26.667-26.667h-53.333v-53.333h53.333c14.669 0 26.667-11.998 26.667-26.667s-11.998-26.667-26.667-26.667h-53.333v-80c0-14.669-11.998-26.667-26.667-26.667s-26.667 11.998-26.667 26.667v213.333z" />
<glyph unicode="&#xe946;" glyph-name="phone" data-tags="phone" d="M704 48c-326.428 0-592 265.57-592 592 0.063 58.385 21.378 114.749 59.964 158.566s91.804 72.087 149.712 79.531c17.198 2.077 34.606-1.465 49.623-10.098s26.839-21.895 33.697-37.802l80.359-187.512c5.214-12.124 7.339-25.35 6.187-38.496-1.148-13.146-5.542-25.803-12.783-36.836l-61.463-93.918c27.372-51.511 69.629-93.581 121.256-120.725l92.39 61.606c11.063 7.407 23.804 11.925 37.060 13.141 13.257 1.22 26.607-0.9 38.835-6.165l187.354-80.294c15.915-6.852 29.18-18.671 37.815-33.69s12.173-32.431 10.091-49.63c-7.445-57.907-35.716-111.125-79.531-149.713-43.819-38.588-100.181-59.9-158.566-59.964v0zM321.712 780.82c-32.183-6.963-61.014-24.73-81.7-50.348s-31.983-57.544-32.012-90.472c0.148-131.503 52.453-257.574 145.439-350.562 92.987-92.983 219.058-145.289 350.561-145.438 32.926 0.030 64.853 11.328 90.47 32.013 25.617 20.689 43.383 49.515 50.351 81.698l-167.829 71.923-92.928-61.961c-11.52-7.693-24.841-12.258-38.656-13.252-13.815-0.99-27.652 1.621-40.158 7.586-77.658 37.636-140.491 100.177-178.478 177.668-5.991 12.429-8.668 26.193-7.771 39.957 0.897 13.769 5.338 27.068 12.891 38.613l61.852 94.505-72.032 168.068z" />
<glyph unicode="&#xe947;" glyph-name="phone-fill" data-tags="phone-fill" d="M938.172 230.054c-7.612-57.813-36.002-110.882-79.881-149.295-43.874-38.409-100.233-59.537-158.545-59.43-338.781 0-614.412 275.631-614.412 614.409-0.105 58.314 21.021 114.672 59.433 158.548s91.48 72.27 149.296 79.878c14.62 1.785 29.425-1.206 42.206-8.527s22.851-18.578 28.707-32.093l90.115-201.177v-0.512c4.48-10.345 6.332-21.639 5.389-32.874-0.947-11.235-4.659-22.061-10.807-31.511-0.768-1.152-1.579-2.219-2.432-3.285l-88.835-105.305c31.958-64.939 99.886-132.267 165.678-164.309l103.851 88.363c1.020 0.858 2.091 1.655 3.2 2.389 9.442 6.298 20.305 10.142 31.607 11.183 11.302 1.045 22.686-0.747 33.122-5.21l0.555-0.256 201.003-90.069c13.538-5.837 24.823-15.898 32.171-28.681 7.343-12.783 10.355-27.597 8.58-42.236z" />
<glyph unicode="&#xe948;" glyph-name="play" data-tags="play" d="M170.667 805.634v-715.172c0-54.537 58.542-87.671 103.626-57.988l547.736 357.589c9.587 6.225 17.489 14.839 22.959 25.037 5.474 10.197 8.346 21.653 8.346 33.293 0 11.644-2.871 23.095-8.346 33.297-5.47 10.197-13.372 18.812-22.959 25.037l-547.736 356.895c-10.15 6.735-21.882 10.534-33.961 10.997s-24.055-2.426-34.667-8.364c-10.612-5.938-19.464-14.704-25.623-25.373s-9.399-22.846-9.374-35.247z" />
<glyph unicode="&#xe949;" glyph-name="png" data-tags="png" d="M224.927 282.556h-70.493c-7.011 0-13.734-2.752-18.692-7.65s-7.743-11.541-7.743-18.47v-208.981c0-6.925 2.785-13.572 7.743-18.47s11.681-7.65 18.692-7.65c7.011 0 13.735 2.752 18.692 7.65s7.742 11.546 7.742 18.47v43.537h44.058c25.707 0 50.36 10.095 68.538 28.058s28.389 42.325 28.389 67.725c0 25.404-10.212 49.766-28.389 67.729s-42.831 28.053-68.538 28.053v0zM224.927 143.236h-44.058v87.074h44.058c11.685 0 22.891-4.587 31.153-12.749 8.262-8.166 12.904-19.238 12.904-30.788 0-11.546-4.642-22.618-12.904-30.784s-19.469-12.753-31.153-12.753v0zM621.449 256.435v-208.981c0.004-5.487-1.732-10.837-4.975-15.292s-7.825-7.787-13.090-9.523c-2.705-0.858-5.53-1.297-8.371-1.306-4.096 0.034-8.132 0.99-11.797 2.803-3.669 1.809-6.865 4.425-9.353 7.646l-111.023 146.287v-130.615c0-6.925-2.786-13.572-7.744-18.47s-11.682-7.65-18.692-7.65c-7.010 0-13.734 2.752-18.691 7.65s-7.743 11.546-7.743 18.47v208.981c0 5.483 1.745 10.825 4.99 15.275 3.244 4.446 7.822 7.774 13.085 9.506 5.265 1.732 10.944 1.788 16.243 0.154 5.295-1.634 9.937-4.877 13.265-9.263l111.023-146.283v130.611c0 6.929 2.786 13.572 7.744 18.47s11.682 7.65 18.692 7.65c7.010 0 13.734-2.752 18.692-7.65s7.744-11.541 7.744-18.47v0zM938.662 91.866c0.098-5.129-1.446-10.159-4.407-14.37-10.743-17.028-25.664-31.104-43.379-40.917-17.711-9.818-37.645-15.061-57.95-15.245-67.853 0-123.362 58.773-123.362 130.611s55.509 130.611 123.362 130.611c24.508 0.009 48.401-7.607 68.288-21.769 5.726-4.041 9.591-10.163 10.748-17.024 1.156-6.857-0.491-13.888-4.578-19.546-4.092-5.658-10.287-9.481-17.229-10.624s-14.054 0.486-19.78 4.527c-10.897 7.812-23.987 12.075-37.449 12.19-38.771 0-70.494-35.264-70.494-78.366s31.723-78.366 70.494-78.366c10.266 0.213 20.348 2.714 29.504 7.309 9.152 4.599 17.139 11.179 23.364 19.247v16.981h-26.436c-7.010 0-13.734 2.752-18.692 7.65s-7.74 11.546-7.74 18.47c0 6.929 2.782 13.572 7.74 18.475 4.958 4.898 11.682 7.65 18.692 7.65h52.868c7.014 0 13.734-2.752 18.692-7.65 4.958-4.902 7.744-11.546 7.744-18.475v-51.371zM850.547 430.583c0-6.929 2.786-13.572 7.744-18.47 4.954-4.898 11.678-7.65 18.692-7.65 7.010 0 13.734 2.752 18.692 7.65 4.954 4.898 7.74 11.541 7.74 18.47v174.149c0.009 3.485-0.687 6.938-2.048 10.153-1.365 3.215-3.362 6.128-5.884 8.568l-246.72 243.373c-2.355 2.518-5.218 4.518-8.41 5.868-3.187 1.35-6.626 2.021-10.095 1.968h-422.955c-16.359 0-32.048-6.422-43.615-17.852s-18.066-26.934-18.066-43.1v-383.128c0-6.929 2.785-13.572 7.743-18.47s11.681-7.65 18.692-7.65c7.011 0 13.735 2.752 18.692 7.65s7.743 11.541 7.743 18.47v383.128c0 2.309 0.928 4.524 2.58 6.157s3.894 2.551 6.231 2.551h396.519v-217.687c0-6.928 2.786-13.572 7.744-18.471s11.682-7.651 18.692-7.651h220.288v-148.027zM656.691 785.412l156.407-154.557h-156.407v154.557z" />
<glyph unicode="&#xe94a;" glyph-name="poweroff" data-tags="power off" d="M460.8 460.403v320.925c0 13.439 5.393 26.328 14.997 35.831 9.6 9.503 22.622 14.842 36.203 14.842s26.603-5.339 36.203-14.842c9.604-9.503 14.997-22.391 14.997-35.831v-320.925c0-13.44-5.393-26.33-14.997-35.831-9.6-9.502-22.622-14.839-36.203-14.839s-26.603 5.338-36.203 14.839c-9.604 9.502-14.997 22.391-14.997 35.831v0zM744.96 797.374c-11.371 7.392-25.246 10.009-38.571 7.277-13.321-2.732-25.003-10.59-32.469-21.845s-10.112-24.986-7.351-38.171c2.761-13.185 10.701-24.745 22.071-32.137 58.641-37.699 103.398-93.149 127.595-158.079s26.539-135.863 6.673-202.219c-19.866-66.351-60.868-124.574-116.898-165.982-56.030-41.404-124.083-63.774-194.010-63.774s-137.979 22.37-194.009 63.774c-56.030 41.408-97.035 99.631-116.899 165.982-19.864 66.355-17.523 137.289 6.674 202.219s68.953 120.38 127.594 158.079c11.372 7.391 19.312 18.951 22.073 32.137s0.116 26.916-7.353 38.171c-7.468 11.255-19.149 19.113-32.471 21.845s-27.196 0.114-38.569-7.277c-77.037-49.689-135.793-122.68-167.514-208.099s-34.711-178.694-8.524-265.93c26.188-87.241 80.151-163.767 153.852-218.189s163.193-83.823 255.146-83.823c91.955 0 181.444 29.402 255.147 83.823 73.698 54.421 127.663 130.948 153.852 218.189 26.189 87.236 23.198 180.51-8.525 265.93s-90.475 158.41-167.514 208.099v0z" />
<glyph unicode="&#xe94b;" glyph-name="report" data-tags="report" d="M307.202 857.599c-27.158 0-53.204-10.789-72.408-29.993s-29.992-45.249-29.992-72.407v-614.399c0-27.157 10.789-53.205 29.992-72.41s45.25-29.99 72.408-29.99h409.598c27.162 0 53.205 10.786 72.41 29.99s29.99 45.252 29.99 72.41v439.602c-0.004 27.156-10.795 53.197-30.003 72.397l-174.797 174.797c-19.196 19.205-45.239 29.997-72.397 30.003h-234.801zM409.602 345.6c0 13.577-5.394 26.603-14.996 36.203s-22.625 14.997-36.204 14.997c-13.579 0-26.602-5.397-36.204-14.997s-14.996-22.626-14.996-36.203v-153.6c0-13.581 5.394-26.603 14.996-36.207 9.602-9.6 22.625-14.993 36.204-14.993s26.602 5.393 36.204 14.993c9.602 9.604 14.996 22.626 14.996 36.207v153.6zM512 499.2c13.581 0 26.603-5.397 36.207-14.997 9.6-9.6 14.993-22.626 14.993-36.203v-256c0-13.581-5.393-26.603-14.993-36.207-9.604-9.6-22.626-14.993-36.207-14.993-13.577 0-26.598 5.393-36.203 14.993-9.6 9.604-14.997 22.626-14.997 36.207v256c0 13.577 5.397 26.603 14.997 36.203 9.604 9.6 22.626 14.997 36.203 14.997zM716.8 550.399c0 13.579-5.393 26.602-14.993 36.204-9.604 9.602-22.626 14.996-36.207 14.996-13.577 0-26.598-5.394-36.203-14.996-9.6-9.602-14.997-22.624-14.997-36.204v-358.399c0-13.581 5.397-26.603 14.997-36.207 9.604-9.6 22.626-14.993 36.203-14.993 13.581 0 26.603 5.393 36.207 14.993 9.6 9.604 14.993 22.626 14.993 36.207v358.399z" />
<glyph unicode="&#xe94c;" glyph-name="result" data-tags="result" d="M112 896h544c12.732 0 24.939-5.057 33.941-14.059s14.059-21.211 14.059-33.941c0-12.73-5.056-24.94-14.059-33.941s-21.21-14.059-33.941-14.059h-544c-12.73 0-24.94 5.057-33.941 14.059s-14.059 21.211-14.059 33.941c0 12.73 5.057 24.94 14.059 33.941s21.211 14.059 33.941 14.059zM64 656c0-12.73 5.057-24.94 14.059-33.941s21.211-14.059 33.941-14.059h336c12.732 0 24.939 5.057 33.941 14.059s14.059 21.211 14.059 33.941c0 12.73-5.056 24.94-14.059 33.941s-21.21 14.059-33.941 14.059h-336c-12.73 0-24.94-5.057-33.941-14.059s-14.059-21.211-14.059-33.941zM640 160c-42.436 0-83.132 16.858-113.139 46.861-30.003 30.007-46.861 70.703-46.861 113.139s16.858 83.132 46.861 113.139c30.007 30.003 70.703 46.861 113.139 46.861s83.132-16.858 113.139-46.861c30.003-30.007 46.861-70.703 46.861-113.139s-16.858-83.132-46.861-113.139c-30.007-30.003-70.703-46.861-113.139-46.861zM640 64c53.376 0 102.848 16.32 143.872 44.224l94.208-94.144c4.395-4.715 9.694-8.499 15.582-11.123s12.245-4.032 18.688-4.147c6.447-0.115 12.847 1.071 18.825 3.486s11.405 6.007 15.966 10.564c4.557 4.561 8.149 9.988 10.564 15.966s3.601 12.378 3.486 18.825c-0.115 6.443-1.523 12.8-4.147 18.688s-6.409 11.187-11.123 15.582l-94.144 94.208c32.119 47.275 47.497 103.94 43.682 160.969-3.819 57.028-26.611 111.138-64.742 153.711-38.135 42.573-89.421 71.16-145.69 81.207-56.265 10.047-114.274 0.975-164.787-25.769s-90.62-69.624-113.938-121.805c-23.317-52.186-28.501-110.669-14.726-166.14s45.719-104.738 90.737-139.947c45.022-35.213 100.531-54.345 157.687-54.353zM112 512h144c12.73 0 24.94-5.056 33.941-14.059s14.059-21.21 14.059-33.941c0-12.732-5.057-24.939-14.059-33.941s-21.211-14.059-33.941-14.059h-144c-12.73 0-24.94 5.056-33.941 14.059s-14.059 21.21-14.059 33.941c0 12.732 5.057 24.939 14.059 33.941s21.211 14.059 33.941 14.059z" />
<glyph unicode="&#xe94d;" glyph-name="search" data-tags="search" d="M712.836 528.913c0 155.609-126.144 281.754-281.749 281.754-155.609 0-281.754-126.145-281.754-281.754 0-155.605 126.145-281.749 281.754-281.749 155.605 0 281.749 126.144 281.749 281.749zM643.102 255.774c-58.547-45.508-132.117-72.61-212.015-72.61-190.955 0-345.754 154.795-345.754 345.749s154.799 345.754 345.754 345.754c190.955 0 345.749-154.799 345.749-345.754 0-79.898-27.102-153.468-72.614-212.015l204.275-204.275c16.661-16.661 16.661-43.678 0-60.339l-0.781-0.781c-16.666-16.661-43.678-16.661-60.339 0l-204.275 204.271z" />
<glyph unicode="&#xe94e;" glyph-name="security" data-tags="security" d="M832 816h-640c-21.21-0.024-41.544-8.461-56.542-23.458s-23.434-35.332-23.458-56.542v-234.667c0-368.811 312.44-491.081 375.070-511.842 16.179-5.406 33.681-5.406 49.856 0 62.639 20.757 375.074 143.027 375.074 511.838v234.671c-0.026 21.21-8.461 41.544-23.458 56.542s-35.332 23.434-56.542 23.458v0zM816 501.333c0-293.619-242.18-397.274-304-418.923-61.82 21.649-304 125.303-304 418.923v218.667h608v-218.667zM302.856 397.282c-4.56 4.352-8.217 9.557-10.764 15.326-2.547 5.764-3.933 11.977-4.079 18.278s0.95 12.57 3.226 18.449c2.276 5.875 5.688 11.247 10.041 15.808s9.56 8.218 15.327 10.765c5.766 2.547 11.977 3.934 18.279 4.079s12.571-0.951 18.449-3.226c5.878-2.278 11.25-5.687 15.81-10.039l84.189-80.363 201.519 192.361c9.207 8.791 21.53 13.564 34.257 13.268s24.819-5.634 33.609-14.842c8.789-9.208 13.564-21.532 13.269-34.259s-5.636-24.815-14.844-33.609l-234.667-223.996c-8.93-8.525-20.8-13.282-33.143-13.282-12.348 0-24.218 4.757-33.145 13.282l-117.332 112z" />
</font>
</defs>
</svg>
